<?xml version="1.0" standalone="no"?>
<!DOCTYPE svg PUBLIC "-//W3C//DTD SVG 1.1//EN" "http://www.w3.org/Graphics/SVG/1.1/DTD/svg11.dtd" >
<svg xmlns="http://www.w3.org/2000/svg">
<metadata></metadata>
<defs>
<font id="outsidersbold" horiz-adv-x="1478" >
<font-face units-per-em="2048" ascent="1536" descent="-512" />
<missing-glyph horiz-adv-x="481" />
<glyph unicode="&#xfb01;" horiz-adv-x="1439" d="M66 844v180h186v96q0 120 39.5 212t108 146.5t153 81.5t182.5 27q91 0 171 -24.5t144.5 -74t102 -131.5t37.5 -188h-242q0 230 -219 230q-112 0 -176 -67t-64 -193v-115h707v-864h225v-160h-645v160h185v684h-472v-684h203v-160h-606v160h166v684h-186z" />
<glyph unicode="&#xfb02;" horiz-adv-x="1439" d="M66 844v180h186v96q0 120 39 212t107.5 146.5t152.5 81.5t182 27q71 0 137.5 -15.5t126 -49t103.5 -81.5t70 -118t26 -154v-1009h225v-160h-645v160h185v1016q0 102 -63.5 162.5t-168.5 60.5q-112 0 -176 -67t-64 -193v-115h287v-180h-287v-684h203v-160h-606v160h166 v684h-186z" />
<glyph horiz-adv-x="2048" />
<glyph horiz-adv-x="2048" />
<glyph unicode="&#xd;" horiz-adv-x="2048" />
<glyph unicode=" "  horiz-adv-x="481" />
<glyph unicode="&#x09;" horiz-adv-x="481" />
<glyph unicode="&#xa0;" horiz-adv-x="481" />
<glyph unicode="!" horiz-adv-x="653" d="M154 0v344h350v-344h-350zM154 1434h344l-84 -951h-176z" />
<glyph unicode="&#x22;" horiz-adv-x="901" d="M104 748l43 686h277l-131 -686h-189zM526 748l43 686h277l-131 -686h-189z" />
<glyph unicode="#" horiz-adv-x="1449" d="M51 428l37 176h293l47 215h-295l41 176h291l94 439h205l-94 -439h227l96 439h207l-96 -439h295l-35 -176h-299l-45 -215h297l-33 -176h-297l-88 -428h-211l90 428h-225l-92 -428h-213l94 428h-291zM588 604h225l47 215h-225z" />
<glyph unicode="$" horiz-adv-x="1204" d="M82 1047q0 97 35 171.5t98 121.5t142 73.5t175 34.5l7 194h166l-7 -192q210 -13 381 -80v-375h-205l-22 234q-65 15 -160 22l-14 -417q56 -16 95 -28.5t91 -33.5t87.5 -41.5t73.5 -52t60.5 -66t37 -81.5t14.5 -101q0 -189 -120 -307t-368 -139l-8 -244h-164l8 242 q-98 5 -195.5 26t-145.5 40l-48 18v387h201l29 -244q73 -25 166 -31l14 451q-137 39 -225 86q-199 107 -199 332zM328 1059q0 -98 127 -154q36 -16 59 -24l12 366q-198 -28 -198 -188zM655 184q107 16 168.5 70t61.5 149q0 68 -55 108.5t-160 72.5z" />
<glyph unicode="%" horiz-adv-x="1585" d="M70 1092q0 164 89 253t224 89t225 -89t90 -253t-90 -254t-225 -90t-224 89.5t-89 254.5zM150 74l1175 1390l115 -102l-1166 -1389zM258 1092q0 -185 125 -185q61 0 96 47.5t35 137.5t-35 137t-96 47q-125 0 -125 -184zM889 324q0 164 89 253t224 89t225.5 -89t90.5 -253 t-90.5 -254t-225.5 -90t-224 89.5t-89 254.5zM1077 324q0 -185 125 -185q61 0 96 47.5t35 137.5t-35 137t-96 47q-125 0 -125 -184z" />
<glyph unicode="&#x26;" horiz-adv-x="1646" d="M63 346q0 63 20 120.5t49 99.5t74 82.5t82.5 66.5t86.5 55q-187 172 -187 358q0 142 101.5 237t269.5 95q152 0 250 -81.5t98 -215.5q0 -91 -49 -163t-123 -117l-139 116q48 27 74 67t26 83q0 52 -34 92.5t-105 40.5q-77 0 -113 -43t-36 -98q0 -108 100 -213 q101 -109 211 -207t293 -242q108 134 168 305h-224v187h646v-187h-189q-38 -92 -105.5 -212.5t-146.5 -211.5q102 -78 357 -198l-121 -193q-144 67 -383 226q-107 -104 -224.5 -159.5t-291.5 -55.5q-105 0 -189 29t-137 79.5t-81 116t-28 141.5zM301 362q0 -85 57 -135.5 t152 -50.5q106 0 192 32.5t164 110.5q-72 56 -162.5 134t-145.5 128l-54 50q-94 -53 -148.5 -116.5t-54.5 -152.5z" />
<glyph unicode="'" horiz-adv-x="479" d="M104 748l43 686h277l-131 -686h-189z" />
<glyph unicode="(" horiz-adv-x="651" d="M72 682q0 139 32 279t88 260.5t118 219.5t134 187l179 -92q-172 -250 -243 -441t-71 -413t71 -413t243 -441l-179 -92q-72 88 -134 187t-118 219.5t-88 260.5t-32 279z" />
<glyph unicode=")" horiz-adv-x="651" d="M29 -172q172 250 242.5 441t70.5 413t-70.5 413t-242.5 441l178 92q72 -88 134 -187t118 -219.5t88.5 -260.5t32.5 -279t-32.5 -279t-88.5 -260.5t-118 -219.5t-134 -187z" />
<glyph unicode="*" horiz-adv-x="1148" d="M68 1012l96 219l313 -156l-33 359h261l-29 -359l313 156l92 -219l-342 -107l279 -284l-207 -140l-236 305l-237 -305l-207 140l279 284z" />
<glyph unicode="+" horiz-adv-x="1173" d="M68 621v200h409v408h219v-408h410v-200h-410v-408h-219v408h-409z" />
<glyph unicode="," horiz-adv-x="600" d="M82 -342l129 342h-86v344h350v-301l-205 -385h-188z" />
<glyph unicode="-" horiz-adv-x="929" d="M102 571v201h723v-201h-723z" />
<glyph unicode="." horiz-adv-x="600" d="M125 0v344h350v-344h-350z" />
<glyph unicode="/" horiz-adv-x="1120" d="M35 -139l899 1706l137 -76l-889 -1708z" />
<glyph unicode="0" horiz-adv-x="1241" d="M96 717q0 180 40.5 322t112 231.5t165.5 136.5t204 47q111 0 205.5 -47t167 -136.5t113.5 -231.5t41 -322t-41 -322.5t-113.5 -232t-167 -136t-205.5 -46.5q-110 0 -204 46.5t-165.5 136t-112 232t-40.5 322.5zM332 717q0 -265 80 -406t206 -141q131 0 210 140t79 407 q0 269 -79 408t-210 139q-126 0 -206 -140t-80 -407z" />
<glyph unicode="1" horiz-adv-x="1028" d="M92 0v184h338v994l-338 -150v211l438 195h136v-1250h333v-184h-907z" />
<glyph unicode="2" horiz-adv-x="1169" d="M90 0v162l369 368q236 236 303 330q61 91 61 180q0 85 -57 136t-148 51q-75 0 -150 -24t-114 -50l-35 -266h-194v532h178l25 -86q132 101 331 101q181 0 294.5 -98.5t113.5 -276.5q0 -109 -70 -232q-31 -52 -81.5 -113t-89.5 -101.5t-113 -114.5l-310 -314h676v-184h-989 z" />
<glyph unicode="3" horiz-adv-x="1136" d="M66 166q119 -12 167 -12q98 0 176 7t153.5 26.5t125.5 51t80.5 84.5t30.5 123q0 58 -19.5 98t-57 62t-84.5 31.5t-110 9.5q-84 0 -198 -24l-25 176l449 432h-670v184h930v-205l-420 -391q203 0 322.5 -91.5t119.5 -285.5q0 -126 -65 -225t-176 -158q-190 -100 -498 -100 q-102 0 -184 12z" />
<glyph unicode="4" horiz-adv-x="1212" d="M33 332v190l575 912h248l-582 -912h443v398h233v-398h234v-190h-234v-332h-233v332h-684z" />
<glyph unicode="5" horiz-adv-x="1126" d="M70 164q121 -8 161 -8q149 0 281 36t205 113q71 71 71 182q0 118 -84 173t-217 55q-140 0 -292 -66l-84 90l110 676h811v-184h-639l-61 -342q111 29 203 29q103 0 186 -23t139.5 -63t95 -95t55.5 -118t17 -134q0 -108 -42.5 -197t-115 -149t-171 -101.5t-207 -60 t-226.5 -18.5l-151 6z" />
<glyph unicode="6" horiz-adv-x="1183" d="M74 547q0 141 56.5 281t140.5 246t183.5 196t182.5 142.5t141 74.5l266 -39q-66 -40 -104.5 -64.5t-100.5 -66.5t-104 -74.5t-98 -81t-99 -95t-90.5 -107t-89.5 -125.5q50 37 132 58t149 21q113 0 206 -37t153 -99.5t93 -144.5t33 -173q0 -72 -18 -139.5t-59 -129.5 t-100 -108.5t-146.5 -74t-194.5 -27.5q-131 0 -233.5 43.5t-167 120.5t-98 179.5t-33.5 223.5zM303 545q0 -58 9 -109.5t31.5 -101.5t56.5 -86t88.5 -58t123.5 -22q135 0 206 79.5t71 201.5q0 120 -75.5 198t-205.5 78q-157 0 -297 -88q-8 -62 -8 -92z" />
<glyph unicode="7" horiz-adv-x="1112" d="M53 1016v399h1057v-158l-80 -112q-67 -96 -132.5 -204t-143 -259t-141 -329.5t-95.5 -352.5h-258q31 150 84 299t125 289t127.5 237.5t137 228.5t108.5 177h-572l-24 -215h-193z" />
<glyph unicode="8" horiz-adv-x="1257" d="M90 391q0 130 93.5 230t224.5 131q-122 37 -196.5 123.5t-74.5 207.5q0 115 66.5 200t177 128t248.5 43q214 0 352.5 -99.5t138.5 -271.5q0 -121 -74 -208t-196 -123q131 -31 224 -131t93 -230q0 -87 -29 -156.5t-79 -116.5t-119 -78.5t-147 -45.5t-166 -14t-165.5 14 t-146.5 46t-118.5 79t-78 116.5t-28.5 155.5zM322 395q0 -107 85 -169t222 -62t222 62t85 169q0 105 -79.5 171.5t-227.5 103.5q-148 -37 -227.5 -103.5t-79.5 -171.5zM371 1081q0 -167 258 -231q260 63 260 231q0 91 -69.5 139t-190.5 48q-120 0 -189 -48.5t-69 -138.5z " />
<glyph unicode="9" horiz-adv-x="1181" d="M61 973q0 91 30 174t88.5 153t159 112t228.5 42q131 0 235 -44t169.5 -122t100 -180.5t34.5 -222.5q0 -102 -28.5 -203.5t-75 -185t-108.5 -162t-128 -139t-134 -111.5t-125 -83.5t-104 -51.5l-286 39q81 49 141.5 87.5t152.5 104.5t160.5 126t138.5 139t113 157 q-49 -37 -127.5 -58.5t-144.5 -21.5q-113 0 -206.5 36.5t-155 98.5t-95 143.5t-33.5 172.5zM293 987q0 -121 75 -198.5t205 -77.5q152 0 297 86q9 74 9 94q0 71 -17 135.5t-51.5 120t-96 88.5t-143.5 33q-135 0 -206.5 -79.5t-71.5 -201.5z" />
<glyph unicode=":" horiz-adv-x="698" d="M174 0v344h350v-344h-350zM174 680v344h350v-344h-350z" />
<glyph unicode=";" horiz-adv-x="645" d="M123 -342l129 342h-86v344h350v-301l-205 -385h-188zM166 680v344h350v-344h-350z" />
<glyph unicode="&#x3c;" horiz-adv-x="1701" d="M53 684v61l680 639h297l-616 -573h1210v-193h-1210l616 -573h-297z" />
<glyph unicode="=" horiz-adv-x="999" d="M123 430v201h754v-201h-754zM123 809v201h754v-201h-754z" />
<glyph unicode="&#x3e;" horiz-adv-x="1701" d="M78 618v193h1212l-616 573h297l678 -639v-61l-678 -639h-297l616 573h-1212z" />
<glyph unicode="?" horiz-adv-x="958" d="M74 958v484h174l22 -82q42 43 117.5 68.5t142.5 25.5q165 0 260 -93t95 -239q0 -71 -31 -143.5t-76 -133.5t-91 -119t-81.5 -122t-40.5 -121h-233q15 84 51 163t77 137t79.5 111t64 107t25.5 103q0 63 -44 102t-116 39q-97 0 -170 -43l-23 -244h-202zM276 0v344h349v-344 h-349z" />
<glyph unicode="@" horiz-adv-x="2086" d="M74 508q0 174 51 327t143 268t217 198.5t276.5 126t317.5 42.5q154 0 293 -35t254.5 -106.5t200 -172t131.5 -238.5t47 -300q0 -154 -40.5 -277.5t-110.5 -201t-158.5 -118.5t-188.5 -41q-99 0 -161.5 42.5t-85.5 102.5q-62 -68 -151 -106.5t-194 -38.5q-153 0 -240 78.5 t-87 209.5q0 136 110 217q43 32 96 54t136.5 37.5t133 22t169.5 19.5v68q0 90 -35.5 126t-122.5 36q-60 0 -116 -15t-85 -34l-14 -148h-182v377h168l6 -57q14 8 39.5 20t102 32.5t149.5 20.5q168 0 246.5 -82t78.5 -247v-455q0 -96 82 -96q17 0 34.5 3.5t42 15.5t46.5 31.5 t44.5 54t38.5 80t26 113.5t10 150q0 137 -39 251t-105.5 192.5t-156.5 132.5t-190.5 79t-208.5 25q-168 0 -316.5 -57t-256 -158t-170 -248t-62.5 -319q0 -173 48.5 -309.5t125.5 -221t181.5 -140.5t208 -77.5t214.5 -21.5q203 0 403 51.5t373 157.5l-49 -230 q-296 -161 -731 -161q-160 0 -304.5 35.5t-270 111.5t-216.5 186t-143.5 268t-52.5 349zM825 274q0 -51 36.5 -80.5t99.5 -29.5q53 0 100.5 13t77.5 31t52.5 36.5t32.5 31.5l9 13v155q-218 -20 -315 -59q-93 -37 -93 -111z" />
<glyph unicode="A" horiz-adv-x="1468" d="M8 0v172h154l346 1090h-232v172h644l399 -1262h151v-172h-587v172h170l-99 348h-448l-96 -348h170v-172h-572zM567 713h326l-164 532z" />
<glyph unicode="B" horiz-adv-x="1439" d="M90 0v172h193v1090h-193v172h701q219 0 340.5 -98.5t121.5 -256.5q0 -95 -51.5 -176.5t-144.5 -126.5q145 -41 229 -138.5t84 -240.5q0 -80 -32 -150.5t-92 -126t-155.5 -88t-213.5 -32.5h-787zM530 193h336q120 0 186 61t66 164q0 93 -76 151t-202 58h-310v-434z M530 819h318q66 27 114 89.5t48 138.5q0 88 -63 141t-204 53h-213v-422z" />
<glyph unicode="C" horiz-adv-x="1357" d="M94 702q0 357 158.5 554.5t423.5 197.5q107 0 195.5 -36.5t127.5 -98.5l31 123h187v-481h-201q-13 58 -34 107.5t-55 95t-88 72t-122 26.5q-172 0 -268.5 -141t-96.5 -412q0 -264 114.5 -393.5t313.5 -129.5q249 0 500 150l-16 -223q-8 -5 -23.5 -14t-67.5 -32 t-109 -40.5t-145.5 -32t-179.5 -14.5q-141 0 -257.5 44t-204 130.5t-135.5 226t-48 321.5z" />
<glyph unicode="D" horiz-adv-x="1554" d="M90 0v172h195v1090h-195v172h678q146 0 269.5 -42t219.5 -126t150.5 -222.5t54.5 -318.5q0 -145 -36.5 -265t-101.5 -204t-154 -142.5t-193.5 -86t-220.5 -27.5h-666zM530 193h179q114 0 202.5 28.5t157 88.5t105 163t36.5 244q0 271 -132.5 397.5t-370.5 126.5h-177 v-1048z" />
<glyph unicode="E" horiz-adv-x="1466" d="M78 0v172h215v1090h-215v172h1249l4 -451h-207l-45 258h-540v-420h219v172h207v-551h-207v187h-219v-436h571l68 258h206l-36 -451h-1270z" />
<glyph unicode="F" horiz-adv-x="1363" d="M84 0v172h215v1090h-215v172h1229l4 -451h-207l-45 258h-520v-448h241v172h207v-551h-207v186h-241v-428h231v-172h-692z" />
<glyph unicode="G" horiz-adv-x="1476" d="M94 705q0 357 156.5 553t421.5 196q110 0 210 -37t140 -98l29 123h186v-481h-201q-11 56 -35.5 107t-63 96t-95.5 71.5t-125 26.5q-172 0 -268.5 -141t-96.5 -412q0 -269 100.5 -396t299.5 -127q168 0 297 58v305h-314v192h735v-192h-172v-410q-143 -83 -269.5 -121 t-301.5 -38q-141 0 -255.5 44t-199.5 131.5t-131.5 227.5t-46.5 322z" />
<glyph unicode="H" horiz-adv-x="1710" d="M90 0v172h195v1090h-195v172h633v-172h-193v-441h650v441h-193v172h633v-172h-195v-1090h195v-172h-633v172h193v457h-650v-457h193v-172h-633z" />
<glyph unicode="I" horiz-adv-x="858" d="M80 0v172h225v1090h-225v172h698v-172h-225v-1090h225v-172h-698z" />
<glyph unicode="J" horiz-adv-x="1290" d="M88 1040q0 186 132.5 290t365.5 104h643v-172h-172v-803q0 -104 -29 -188.5t-90 -151t-165.5 -103t-246.5 -36.5q-79 0 -151 9t-117.5 21t-84 27t-54 24t-23.5 15l64 231q7 -5 19 -13t50.5 -28.5t79 -36t100.5 -28.5t117 -13q285 0 285 285v768h-205q-142 0 -203 -47 q-71 -51 -71 -150q0 -89 50 -131t159 -47l-29 -196q-206 0 -315 104t-109 266z" />
<glyph unicode="K" horiz-adv-x="1546" d="M90 0v172h195v1090h-195v172h582v-172h-142v-443h246l324 443h-219v172h612v-172h-143l-404 -531q43 -23 80.5 -59.5t83.5 -110.5l238 -389h174v-172h-365l-268 467q-53 89 -101 125.5t-122 36.5h-136v-457h199v-172h-639z" />
<glyph unicode="L" horiz-adv-x="1363" d="M90 0v172h195v1090h-195v172h651v-172h-211v-1069h527l69 258h207l-37 -451h-1206z" />
<glyph unicode="M" horiz-adv-x="1945" d="M90 0v172h193v1090h-193v172h559l314 -816l344 816h548v-172h-194v-1090h194v-172h-651v172h211v989l-334 -770h-256l-305 766v-985h211v-172h-641z" />
<glyph unicode="N" horiz-adv-x="1675" d="M90 0v172h193v1090h-193v172h539l549 -1069v897h-191v172h625v-172h-193v-1262h-307l-592 1171v-999h217v-172h-647z" />
<glyph unicode="O" d="M94 717q0 181 48 322t134.5 231.5t203.5 137t259 46.5q141 0 258 -46.5t204 -136.5t135 -231.5t48 -322.5t-48 -322.5t-135 -231.5t-204 -136.5t-258 -46.5q-142 0 -259 46.5t-203.5 137t-134.5 231.5t-48 322zM352 717q0 -262 100.5 -398.5t286.5 -136.5t286.5 136.5 t100.5 398.5t-100.5 398t-286.5 136t-286.5 -136t-100.5 -398z" />
<glyph unicode="P" horiz-adv-x="1306" d="M90 0v172h195v1090h-195v172h674q222 0 356.5 -117t134.5 -307t-140 -314.5t-374 -124.5h-211v-399h240v-172h-680zM530 764h199q130 0 204.5 65.5t74.5 176.5q0 107 -72 171t-184 64h-222v-477z" />
<glyph unicode="Q" d="M94 717q0 181 48 322t134.5 231.5t203.5 137t259 46.5q141 0 258 -46.5t204 -136.5t135 -231.5t48 -322.5q0 -340 -165 -535l243 -252l-143 -139l-254 266q-142 -77 -326 -77q-142 0 -259 46.5t-203.5 137t-134.5 231.5t-48 322zM352 717q0 -262 100.5 -398.5 t286.5 -136.5q97 0 172 37l-286 295l145 135l281 -293q75 140 75 361q0 262 -100.5 398t-286.5 136t-286.5 -136t-100.5 -398z" />
<glyph unicode="R" horiz-adv-x="1515" d="M90 0v172h195v1090h-195v172h717q226 0 358.5 -103.5t132.5 -288.5q0 -87 -42.5 -165.5t-128 -135t-197.5 -69.5q133 -35 205 -150l229 -350h178v-172h-360l-244 399q-69 118 -160 166q-68 35 -160 35h-88v-428h197v-172h-637zM530 788h222q135 0 216 63t81 171 q0 105 -70.5 162t-183.5 57h-265v-453z" />
<glyph unicode="S" horiz-adv-x="1251" d="M109 1047q0 87 28.5 156.5t77.5 115.5t118 77t146 44.5t164 13.5q233 0 459 -92l-15 -365h-200l-10 228q-42 19 -110 30t-128 11q-128 0 -207.5 -50.5t-79.5 -156.5q0 -99 127 -156q39 -17 96.5 -34.5t110 -31t113.5 -33.5t112 -40.5t99.5 -52.5t82 -70t54 -92t20.5 -119 q0 -97 -32 -176.5t-99 -142t-180.5 -97t-265.5 -34.5q-71 0 -145 8.5t-129.5 20t-101 23.5t-69.5 20l-24 9v392h205l22 -240q49 -16 120.5 -28.5t125.5 -12.5q150 0 235.5 56t85.5 175q0 55 -38.5 94t-106.5 64.5t-141 44.5t-163.5 48t-152.5 63q-96 52 -150 130.5 t-54 199.5z" />
<glyph unicode="T" horiz-adv-x="1392" d="M51 1434h1288l-4 -451h-207l-18 258h-291v-1069h252v-172h-752v172h254v1069h-292l-19 -258h-205z" />
<glyph unicode="U" horiz-adv-x="1650" d="M59 1262v172h633v-172h-211v-717q0 -365 348 -365q347 0 347 363v719h-213v172h632v-172h-172v-717q0 -276 -157 -420.5t-449 -144.5q-281 0 -434.5 138t-153.5 414v730h-170z" />
<glyph unicode="V" horiz-adv-x="1497" d="M-4 1262v172h631v-172h-207l340 -1074l334 1074h-205v172h612v-172h-153l-418 -1262h-361l-419 1262h-154z" />
<glyph unicode="W" horiz-adv-x="2289" d="M-2 1262v172h633v-172h-215l282 -1004l299 1004h-170v172h656v-172h-172l303 -1004l278 1004h-211v172h611v-172h-152l-377 -1262h-297l-313 1047l-303 -1047h-320l-378 1262h-154z" />
<glyph unicode="X" horiz-adv-x="1437" d="M27 0v172h155l389 559l-354 531h-168v172h600v-172h-143l227 -363l236 363h-172v172h579v-172h-137l-365 -533l383 -557h160v-172h-620v172h166l-252 393l-244 -393h182v-172h-622z" />
<glyph unicode="Y" horiz-adv-x="1484" d="M-4 1262v172h659v-172h-204l309 -537l303 537h-199v172h625v-172h-176l-445 -736v-354h232v-172h-711v172h232v354l-449 736h-176z" />
<glyph unicode="Z" horiz-adv-x="1409" d="M90 0v201l907 1040h-639l-34 -258h-197l-6 451h1169v-205l-893 -1036h660l49 258h207l-19 -451h-1204z" />
<glyph unicode="[" horiz-adv-x="761" d="M170 -211v1794h580v-190h-347v-1413h347v-191h-580z" />
<glyph unicode="\" horiz-adv-x="1120" d="M49 1491l137 76l899 -1706l-147 -78z" />
<glyph unicode="]" horiz-adv-x="759" d="M12 -20h344v1413h-344v190h578v-1794h-578v191z" />
<glyph unicode="^" horiz-adv-x="1284" d="M154 485l354 949h270l352 -949h-243l-246 713l-244 -713h-243z" />
<glyph unicode="_" horiz-adv-x="731" d="M14 -131h703v-182h-703v182z" />
<glyph unicode="`" horiz-adv-x="940" d="M115 1477l184 143l522 -383l-137 -119z" />
<glyph unicode="a" horiz-adv-x="1099" d="M66 268q0 53 14 96.5t42 75.5t62 56.5t82.5 41.5t93.5 28.5t105 18.5t108 10.5t111 6.5v70q0 96 -41 137t-141 41q-81 0 -146 -29l-32 -166h-174v389h159l15 -61q99 61 254 61q166 0 255 -75.5t89 -249.5v-455q0 -66 13.5 -86t47.5 -20t88 22l-10 -155q-70 -45 -160 -45 q-154 0 -192 122q-47 -50 -131.5 -86t-190.5 -36q-149 0 -235 78t-86 210zM305 279q0 -115 131 -115q64 0 126 26t92 52l30 26v170q-78 -7 -122 -11.5t-94 -13t-75 -18.5t-48 -26t-31.5 -38t-8.5 -52z" />
<glyph unicode="b" horiz-adv-x="1224" d="M4 1315v160h383v-568q104 137 305 137q210 0 333.5 -139t123.5 -395q0 -106 -29 -200.5t-83.5 -168.5t-142.5 -117.5t-198 -43.5q-103 0 -182 31t-133 110l-59 -121h-172v1315h-146zM381 512q0 -167 73.5 -253.5t190.5 -86.5q119 0 192.5 86t73.5 254t-73.5 254 t-192.5 86q-117 0 -190.5 -86.5t-73.5 -253.5z" />
<glyph unicode="c" horiz-adv-x="1054" d="M76 510q0 254 126 394t330 140q65 0 132.5 -28.5t93.5 -67.5l33 96h149v-403h-172q-54 219 -221 219q-110 0 -173 -86.5t-63 -255.5q0 -176 84.5 -259t212.5 -83q190 0 369 113l-6 -203q-7 -4 -19 -11.5t-53 -25.5t-85.5 -32t-111.5 -25.5t-135 -11.5q-228 0 -359.5 135 t-131.5 395z" />
<glyph unicode="d" horiz-adv-x="1257" d="M74 498q0 256 131.5 401t347.5 145q184 0 287 -112v383h-146v160h379v-1315h121v-160h-354v119q-51 -69 -132.5 -104t-179.5 -35q-108 0 -195.5 42.5t-143.5 114.5t-85.5 165t-29.5 196zM311 512q0 -167 73.5 -253.5t190.5 -86.5q119 0 193 86.5t74 253.5t-74 253.5 t-193 86.5q-117 0 -190.5 -86.5t-73.5 -253.5z" />
<glyph unicode="e" horiz-adv-x="1071" d="M74 510q0 107 30 201.5t88 169.5t152 119t213 44q198 0 315 -122.5t117 -339.5v-121h-674q17 -285 297 -285q190 0 369 113l-6 -207q-48 -34 -155 -68t-247 -34q-231 0 -365 135t-134 395zM322 641h430q-1 60 -17.5 104t-45.5 68.5t-63.5 35.5t-76.5 11q-90 0 -157 -61.5 t-70 -157.5z" />
<glyph unicode="f" horiz-adv-x="751" d="M76 0v160h143v684h-143v180h143v129q0 170 107.5 267.5t287.5 97.5q83 0 166 -17.5t135 -38.5l-49 -198q-50 25 -118 44t-115 19q-82 0 -129 -41t-47 -149v-113h245v-180h-245v-684h184v-160h-565z" />
<glyph unicode="g" horiz-adv-x="1132" d="M29 -180q0 88 59 151t154 76l2 8q-86 19 -129 72.5t-43 120.5q0 130 137 203q-78 81 -78 211q0 178 117.5 280t302.5 102q147 0 235 -63l220 244l157 -140l-221 -229q2 -3 5.5 -8t13 -22.5t16.5 -37.5t12.5 -51.5t5.5 -64.5q0 -179 -119 -282t-309 -103q-142 0 -252 61 q-22 -11 -37.5 -30.5t-15.5 -41.5q0 -50 62 -67q51 -14 249 -21q55 -2 96.5 -4.5t102.5 -11t105.5 -22t94 -38t80.5 -57t51.5 -82t20.5 -110.5q0 -51 -15 -98t-56 -96t-104.5 -85t-169 -59t-240.5 -23q-250 0 -380 88.5t-130 229.5zM254 -170q0 -52 45 -87.5t112 -50 t150 -14.5q146 0 235 42t89 128q0 28 -13 50.5t-31.5 37t-50 24.5t-57 15t-64 7.5t-59.5 3t-55 0.5q-301 0 -301 -156zM356 666q0 -96 55.5 -147.5t153.5 -51.5q83 0 142 52.5t59 146.5q0 95 -53 146.5t-144 51.5q-96 0 -154.5 -51t-58.5 -147z" />
<glyph unicode="h" horiz-adv-x="1286" d="M49 0v160h144v1155h-144v160h379q-2 -274 -2 -590q150 159 340 159q82 0 144.5 -20.5t98.5 -51.5t59 -74t30.5 -82t7.5 -81v-575h143v-160h-379v709q0 67 -41.5 103t-107.5 36q-78 0 -146 -35t-147 -104v-549h164v-160h-543z" />
<glyph unicode="i" horiz-adv-x="669" d="M72 0v160h164v704h-162v160h397v-864h164v-160h-563zM209 1190v285h276v-285h-276z" />
<glyph unicode="j" horiz-adv-x="595" d="M-68 -287q74 -6 111 -6q89 0 127.5 44t38.5 165v948h-184v160h421v-1079q0 -220 -92.5 -318t-281.5 -98q-62 0 -123 6zM184 1190v285h277v-285h-277z" />
<glyph unicode="k" horiz-adv-x="1267" d="M49 0v160h144v1155h-144v160h379v-840h70l102 -4l219 233h-143v160h532v-160h-135l-303 -307q69 -32 129 -119l195 -278h135v-160h-301l-240 354q-41 62 -90 82.5t-127 20.5h-43v-297h145v-160h-524z" />
<glyph unicode="l" horiz-adv-x="620" d="M49 0v160h144v1155h-144v160h379v-1315h145v-160h-524z" />
<glyph unicode="m" horiz-adv-x="1945" d="M74 0v160h143v704h-143v160h375v-135q146 155 327 155q218 0 297 -170q71 83 167 126.5t192 43.5q82 0 144 -20.5t97 -51t56 -74t27.5 -82t6.5 -81.5v-575h146v-160h-381v709q0 66 -42 102.5t-106 36.5q-146 0 -272 -139v-549h164v-160h-400v709q0 67 -41.5 103 t-107.5 36q-147 0 -270 -139v-549h161v-160h-540z" />
<glyph unicode="n" horiz-adv-x="1308" d="M74 0v160h143v704h-143v160h375v-139q150 159 339 159q82 0 145 -20.5t99 -51.5t58.5 -74t30 -81.5t7.5 -81.5v-575h144v-160h-379v709q0 67 -42 103t-108 36q-77 0 -144 -35t-146 -104v-549h161v-160h-540z" />
<glyph unicode="o" horiz-adv-x="1153" d="M74 512q0 172 67.5 294t179 180t254.5 58q107 0 198 -34t159.5 -99t107.5 -167.5t39 -231.5q0 -130 -38.5 -232.5t-107.5 -167.5t-160 -98.5t-198 -33.5t-197 33.5t-158.5 98.5t-107 167.5t-38.5 232.5zM311 512q0 -167 73.5 -253.5t190.5 -86.5q119 0 193 86.5t74 253.5 t-74 253.5t-193 86.5q-117 0 -190.5 -86.5t-73.5 -253.5z" />
<glyph unicode="p" horiz-adv-x="1267" d="M47 -291h146v1155h-146v160h377l-2 -129q43 67 123.5 108t195.5 41q201 0 326 -140.5t125 -381.5q0 -114 -29.5 -212t-86.5 -172t-146.5 -116t-202.5 -42q-66 0 -121.5 14.5t-87.5 35t-54.5 41.5t-31.5 35l-8 15v-412h190v-160h-567v160zM424 514q0 -169 75.5 -255.5 t192.5 -86.5q118 0 190 85.5t72 252.5q0 169 -73.5 255.5t-190.5 86.5q-119 0 -192.5 -86t-73.5 -252z" />
<glyph unicode="q" horiz-adv-x="1224" d="M74 498q0 256 132 401t349 145q96 0 180.5 -37t126.5 -110l62 127h151v-1315h125v-160h-547v160h189v414q-94 -143 -312 -143q-108 0 -196 42.5t-144 114.5t-86 165t-30 196zM313 512q0 -167 74 -253.5t191 -86.5q119 0 192.5 86t73.5 254t-73.5 254t-192.5 86 q-117 0 -191 -86.5t-74 -253.5z" />
<glyph unicode="r" horiz-adv-x="923" d="M74 0v160h143v704h-143v160h368q-6 -92 -6 -162q59 57 156 119.5t158 62.5q28 0 75 -8.5t78 -19.5l-20 -242q-121 33 -172 33q-33 0 -121 -44t-137 -79v-524h200v-160h-579z" />
<glyph unicode="s" horiz-adv-x="995" d="M92 362h180l23 -182q70 -20 186 -20q104 0 158.5 29t54.5 98q0 35 -29 59t-79.5 39.5t-106.5 28.5t-124 34t-117 48q-142 76 -142 252q0 134 105.5 215t300.5 81q95 0 205.5 -17t160.5 -40v-289l-182 -10l-18 170q-74 16 -164 16q-84 0 -132 -30.5t-48 -85.5 q0 -63 59 -92q33 -17 93.5 -34.5t117.5 -30.5t120 -37.5t109 -55t76.5 -83.5t30.5 -122q0 -147 -111.5 -235t-322.5 -88q-236 0 -396 55z" />
<glyph unicode="t" horiz-adv-x="788" d="M20 844v180h187v346h235v-346h324l-53 -180h-271v-533q0 -68 23.5 -96.5t95.5 -28.5q87 0 172 21l-8 -195q-88 -26 -217 -26q-73 0 -128.5 17.5t-87.5 45.5t-52 68.5t-26.5 80t-6.5 87.5v559h-187z" />
<glyph unicode="u" horiz-adv-x="1257" d="M51 864v160h357v-692q0 -156 147 -156q77 0 139 34t144 105v549h-185v160h420v-864h123v-160h-354v139q-150 -159 -332 -159q-82 0 -144.5 21t-97.5 52t-56.5 75.5t-28.5 83t-7 81.5v571h-125z" />
<glyph unicode="v" horiz-adv-x="1118" d="M12 864v160h475v-160h-131l209 -676l207 676h-135v160h469v-160h-105l-282 -864h-316l-286 864h-105z" />
<glyph unicode="w" horiz-adv-x="1767" d="M12 864v160h494v-160h-154l168 -655l238 815h252l237 -815l170 655h-155v160h493v-160h-113l-253 -864h-283l-221 782l-221 -782h-283l-256 864h-113z" />
<glyph unicode="x" horiz-adv-x="1140" d="M51 0v160h131l252 364l-235 340h-148v160h303l240 -367l235 367h254v-160h-125l-239 -346l254 -358h110v-160h-266l-254 373l-241 -373h-271z" />
<glyph unicode="y" horiz-adv-x="1191" d="M-23 -207q105 -45 224 -45q105 0 157.5 48.5t102.5 174.5l-322 893h-131v160h334l254 -795l244 635h-162v160h506v-160h-113l-332 -794q-4 -9 -18 -43.5t-18.5 -45t-18 -41.5t-19.5 -44t-18.5 -40t-20 -41t-20 -36t-22.5 -37t-22.5 -32.5t-24.5 -31.5 q-107 -129 -314 -129q-51 0 -109.5 9.5t-91.5 18.5l-32 9z" />
<glyph unicode="z" horiz-adv-x="1085" d="M84 0v174l621 670h-394l-16 -207h-191v387h873v-190l-602 -654h401l29 199h192l-8 -379h-905z" />
<glyph unicode="{" horiz-adv-x="780" d="M25 627v182h118q55 0 72.5 26t17.5 97v649h537v-180h-301v-451q0 -89 -39 -151t-117 -80q78 -18 117 -80.5t39 -151.5v-516h301v-180h-537v711q0 62 -22.5 93.5t-58.5 31.5h-127z" />
<glyph unicode="|" horiz-adv-x="528" d="M168 -272v1970h192v-1970h-192z" />
<glyph unicode="}" horiz-adv-x="780" d="M10 -29h299v516q0 89 39.5 151.5t118.5 80.5q-79 18 -118.5 80t-39.5 151v451h-299v180h537v-649q0 -71 17.5 -97t72.5 -26h119v-182h-127q-36 0 -59 -31.5t-23 -93.5v-711h-537v180z" />
<glyph unicode="~" horiz-adv-x="1189" d="M106 532q0 95 24.5 162.5t66.5 102t86.5 49t95.5 14.5q54 0 146.5 -32t176.5 -63.5t119 -31.5q60 0 60 103v18h213q0 -95 -25 -162.5t-67 -102t-86.5 -49t-94.5 -14.5q-59 0 -155 32t-177.5 63.5t-107.5 31.5q-62 0 -62 -102v-19h-213z" />
<glyph unicode="&#xa1;" horiz-adv-x="622" d="M139 -410l84 951h176l84 -951h-344zM139 680v344h350v-344h-350z" />
<glyph unicode="&#xa2;" horiz-adv-x="1030" d="M63 510q0 239 114 378.5t300 153.5l15 330h145l-14 -346q85 -26 125 -78l32 96h148v-403h-170q-44 163 -144 203l-26 -670q177 3 356 115l-6 -203q-6 -4 -17 -10t-47 -22.5t-75 -30t-98 -26t-119 -15.5l-15 -349h-147l16 355q-175 29 -274 161t-99 361zM299 518 q0 -239 145 -315l25 649q-80 -24 -125 -108t-45 -226z" />
<glyph unicode="&#xa3;" horiz-adv-x="1501" d="M53 147q0 74 51.5 119t118.5 45q73 0 123 -24q29 48 82 196h-246v162h297l49 148h-346v161h391q18 63 30.5 105t32 97.5t36.5 92.5t42 80.5t51 71.5t61.5 56.5t74.5 44.5t88.5 26t106.5 10q99 0 191 -42.5t149 -119.5l-103 -174q-35 46 -97.5 79.5t-111.5 33.5 q-77 0 -129.5 -36.5t-99.5 -148.5l-70 -176h387v-161h-444l-59 -148h503v-162h-565q-59 -150 -135 -241q343 -103 479 -103q139 0 144 162l221 -49q-15 -348 -318 -348q-219 0 -626 182q-46 -54 -90.5 -73t-98.5 -19q-83 0 -126.5 45.5t-43.5 107.5z" />
<glyph unicode="&#xa4;" horiz-adv-x="1413" d="M82 242l233 223q-77 113 -77 254t77 254l-233 223l141 150l248 -236q102 51 236 51q131 0 233 -51l248 236l143 -150l-235 -223q78 -114 78 -254t-78 -254l235 -223l-143 -150l-248 236q-104 -52 -233 -52q-132 0 -236 52l-248 -236zM471 719q0 -127 65.5 -190.5 t170.5 -63.5q103 0 168 63.5t65 190.5t-65 190.5t-168 63.5q-105 0 -170.5 -63.5t-65.5 -190.5z" />
<glyph unicode="&#xa5;" horiz-adv-x="1697" d="M59 1241v193h701v-193h-205l305 -504l307 504h-198v193h669v-193h-217l-180 -287h221v-161h-321l-90 -148h411v-162h-485v-290h252v-193h-756v193h252v290h-487v162h413l-92 148h-321v161h219l-181 287h-217z" />
<glyph unicode="&#xa6;" horiz-adv-x="532" d="M170 -272v888h192v-888h-192zM170 834v864h192v-864h-192z" />
<glyph unicode="&#xa7;" horiz-adv-x="1308" d="M59 741q0 91 65 170.5t193 124.5q8 -7 22 -18.5t61.5 -37.5t97.5 -42q-63 -21 -106.5 -46.5t-63.5 -51.5t-27.5 -46t-7.5 -40q0 -44 32 -78.5t84 -56.5t119 -45t136.5 -42.5t136.5 -51.5t119 -70t84 -98.5t32 -137.5q0 -81 -36 -144.5t-96.5 -102.5t-135 -59t-156.5 -20 q-193 0 -346 52l4 327h174l11 -182q58 -14 149 -14q53 0 96 11t75 42t32 78q0 77 -88 125q-53 28 -222 77.5t-247 90.5q-191 100 -191 286zM268 1354q0 81 36.5 144.5t98 101t135.5 56.5t156 19q194 0 346 -53l-4 -326h-176l-10 185q-53 12 -148 12q-82 0 -139 -31.5 t-57 -101.5q0 -77 86 -125q42 -23 116 -47.5t142.5 -42.5t143.5 -49t129.5 -68t90 -98.5t35.5 -141.5q0 -94 -60.5 -175t-195.5 -130q-11 9 -31 23.5t-71.5 41t-93.5 32.5q64 20 110 47t68 54t31.5 49t9.5 42q0 57 -61 98t-142 63t-193 59t-182 77q-170 100 -170 285z" />
<glyph unicode="&#xa8;" horiz-adv-x="911" d="M115 1151v283h262v-283h-262zM528 1151v283h265v-283h-265z" />
<glyph unicode="&#xa9;" horiz-adv-x="1673" d="M78 717q0 150 39.5 276t109.5 215.5t165.5 151.5t207 91.5t234.5 29.5t235 -29.5t208.5 -91.5t167 -151.5t110.5 -215.5t40 -276q0 -186 -61.5 -334.5t-167.5 -240.5t-241.5 -140.5t-290.5 -48.5q-123 0 -234.5 30t-207 92t-165.5 151.5t-109.5 215t-39.5 275.5zM227 717 q0 -156 47.5 -279.5t130.5 -200.5t192 -117t237 -40t237.5 40t193 117t131.5 200.5t48 279.5t-48 279.5t-131.5 200.5t-193 117t-237.5 40t-237 -40t-192 -117t-130.5 -200.5t-47.5 -279.5zM416 727q0 213 106.5 330t278.5 117q57 0 112 -22.5t76 -57.5l29 80h125v-336h-146 q-40 182 -184 182q-95 0 -147 -72t-52 -215q0 -148 71.5 -217.5t180.5 -69.5q164 0 312 95l-9 -170q-6 -4 -16 -10t-45 -22t-72 -28t-93.5 -22t-113.5 -10q-190 0 -301.5 114.5t-111.5 333.5z" />
<glyph unicode="&#xaa;" horiz-adv-x="993" d="M76 840q0 155 157 219q101 43 332 51v80q0 57 -26 77.5t-82 20.5q-61 0 -131 -24l-25 -125h-168v303h164l8 -35q26 18 88 32.5t109 14.5q143 0 211.5 -63t68.5 -201v-324q0 -57 14 -79.5t46 -22.5q42 0 67 10l-2 -141q-83 -27 -137 -27q-63 0 -112 31t-64 84 q-92 -115 -254 -115q-124 0 -194 64.5t-70 169.5zM295 840q0 -35 25.5 -53.5t60.5 -18.5q42 0 82 16t58 29.5t44 36.5v113q-148 -15 -209 -42.5t-61 -80.5z" />
<glyph unicode="&#xab;" horiz-adv-x="1193" d="M27 496v45l383 483h270l-397 -506l397 -518h-270zM487 496v45l383 483h273l-398 -506l398 -518h-273z" />
<glyph unicode="&#xac;" horiz-adv-x="1064" d="M98 571v201h846v-453h-219v252h-627z" />
<glyph unicode="&#xad;" horiz-adv-x="929" d="M102 571v201h723v-201h-723z" />
<glyph unicode="&#xae;" horiz-adv-x="1673" d="M78 717q0 150 39.5 276t109.5 215.5t165.5 151.5t207 91.5t234.5 29.5t235 -29.5t208.5 -91.5t167 -151.5t110.5 -215.5t40 -276q0 -186 -61.5 -334.5t-167.5 -240.5t-241.5 -140.5t-290.5 -48.5q-123 0 -234.5 30t-207 92t-165.5 151.5t-109.5 215t-39.5 275.5zM227 717 q0 -156 47.5 -279.5t130.5 -200.5t192 -117t237 -40q102 0 192 25t166.5 76.5t131 126t85.5 179t31 230.5t-31 230.5t-85.5 179t-131 126t-166.5 76.5t-192 25q-128 0 -237 -40t-192 -117t-130.5 -200.5t-47.5 -279.5zM428 297v137h88v600h-88v133h459q139 0 221 -60.5 t82 -170.5q0 -40 -10.5 -74.5t-34 -66.5t-66.5 -54.5t-102 -31.5q57 -19 110 -95l115 -180h76v-137h-219l-133 248q-19 35 -30.5 51.5t-32.5 34.5t-51 24.5t-75 6.5h-28v-228h110v-137h-391zM709 797h127q159 0 159 127q0 61 -40.5 85.5t-114.5 24.5h-131v-237z" />
<glyph unicode="&#xaf;" horiz-adv-x="890" d="M102 1167v183h686v-183h-686z" />
<glyph unicode="&#xb0;" horiz-adv-x="825" d="M70 1098q0 164 94 250t250 86q155 0 248.5 -86t93.5 -250t-93.5 -250t-248.5 -86q-156 0 -250 86t-94 250zM264 1098q0 -94 40 -140.5t110 -46.5t111.5 47t41.5 140t-41 139.5t-112 46.5q-70 0 -110 -46t-40 -140z" />
<glyph unicode="&#xb1;" horiz-adv-x="1214" d="M90 0v201h1034v-201h-1034zM90 748v200h406v408h219v-408h409v-200h-409v-408h-219v408h-406z" />
<glyph unicode="&#xb2;" horiz-adv-x="768" d="M102 686v119l213 194q105 99 138.5 143t33.5 91q0 40 -28.5 62t-71.5 22q-64 0 -121 -31l-16 -153h-131v313h121l8 -45q80 53 170 53q104 0 172.5 -56t68.5 -157q0 -70 -43.5 -134t-156.5 -167l-125 -115h330v-139h-562z" />
<glyph unicode="&#xb3;" horiz-adv-x="716" d="M92 1296v138h531v-129l-222 -168q110 0 173 -53.5t63 -153.5q0 -58 -22 -107.5t-69.5 -91t-132.5 -65t-200 -23.5l-98 6l-17 139q46 -6 123 -6q248 0 248 146q0 45 -38 67.5t-97 22.5q-56 0 -127 -12v108l231 182h-346z" />
<glyph unicode="&#xb4;" horiz-adv-x="776" d="M25 1237l522 383l184 -143l-567 -359z" />
<glyph unicode="&#xb5;" horiz-adv-x="1314" d="M80 864v160h356v-692q0 -156 148 -156q76 0 138 34t144 105v549h-184v160h420v-864h123v-160h-355v139q-77 -81 -154 -120t-169 -39q-75 0 -129 26v-436h-213v1294h-125z" />
<glyph unicode="&#xb6;" horiz-adv-x="1624" d="M84 717q0 144 36 263.5t98.5 202.5t147.5 140.5t181.5 84t202.5 26.5h800v-193h-235v-1048h235v-193h-790q-106 0 -203.5 26.5t-184 84t-150.5 140t-101 202.5t-37 264z" />
<glyph unicode="&#xb7;" horiz-adv-x="618" d="M133 553v344h352v-344h-352z" />
<glyph unicode="&#xb8;" horiz-adv-x="792" d="M117 -469l45 139q45 -25 102 -39t103 -14q27 0 52 5.5t45.5 23.5t20.5 45q0 31 -28 53t-73 32t-80.5 14t-72.5 5l99 273l147 -7l-47 -143q58 -7 109 -29.5t89 -71t38 -112.5q0 -69 -27.5 -118.5t-72.5 -73.5t-90 -34.5t-93 -10.5q-160 0 -266 63z" />
<glyph unicode="&#xb9;" horiz-adv-x="739" d="M100 1192v151l262 103h99v-621h186v-139h-536v139h194v447z" />
<glyph unicode="&#xba;" horiz-adv-x="942" d="M72 1030q0 205 110.5 314.5t288.5 109.5t288.5 -109.5t110.5 -314.5q0 -206 -110.5 -315t-288.5 -109t-288.5 109t-110.5 315zM295 1030q0 -123 48.5 -187.5t127.5 -64.5q78 0 126 64.5t48 187.5q0 122 -48 185t-126 63q-79 0 -127.5 -63.5t-48.5 -184.5z" />
<glyph unicode="&#xbb;" horiz-adv-x="1193" d="M51 0l398 518l-398 506h273l381 -483v-45l-381 -496h-273zM512 0l397 518l-397 506h272l383 -483v-45l-383 -496h-272z" />
<glyph unicode="&#xbc;" horiz-adv-x="1914" d="M84 1192v151l260 103h98v-621h189v-139h-537v139h195v447zM250 61l1446 1469l96 -90l-1438 -1469zM1200 174v133l273 467h169l-272 -463h193v172h153v-172h135v-137h-135v-174h-153v174h-363z" />
<glyph unicode="&#xbd;" horiz-adv-x="1957" d="M74 1192v151l260 103h98v-621h189v-139h-537v139h195v447zM240 61l1446 1469l96 -90l-1438 -1469zM1325 0v119l213 194q105 99 138.5 143t33.5 91q0 40 -28.5 62t-73.5 22q-62 0 -119 -31l-16 -154h-132v314h121l8 -45q80 53 170 53q104 0 173 -56t69 -157 q0 -70 -44 -133.5t-157 -167.5l-125 -115h330v-139h-561z" />
<glyph unicode="&#xbe;" horiz-adv-x="1865" d="M80 1296v138h530v-129l-213 -168q110 0 173 -53.5t63 -153.5q0 -58 -22 -107.5t-69.5 -91t-132.5 -65t-200 -23.5l-98 6l-17 142q109 -7 123 -7q248 0 248 144q0 45 -38 67.5t-97 22.5q-54 0 -127 -12v108l229 182h-352zM203 61l1446 1469l96 -90l-1438 -1469zM1153 174 v133l272 467h168l-270 -463h193v172h153v-172h133v-137h-133v-174h-153v174h-363z" />
<glyph unicode="&#xbf;" horiz-adv-x="958" d="M88 -98q0 71 31 143.5t76 133.5t91 119t81.5 122t40.5 121h231q-14 -84 -50 -163t-77 -137t-80 -111t-64.5 -107t-25.5 -103q0 -63 45 -102t117 -39q97 0 170 43l22 244h203v-484h-174l-23 82q-43 -43 -118.5 -68.5t-143.5 -25.5q-163 0 -257.5 93t-94.5 239zM346 680 v344h350v-344h-350z" />
<glyph unicode="&#xc0;" horiz-adv-x="1468" d="M8 0v172h154l346 1090h-232v172h644l399 -1262h151v-172h-587v172h170l-99 348h-448l-96 -348h170v-172h-572zM406 1907l184 143l522 -383l-137 -119zM567 713h326l-164 532z" />
<glyph unicode="&#xc1;" horiz-adv-x="1468" d="M8 0v172h154l346 1090h-232v172h644l399 -1262h151v-172h-587v172h170l-99 348h-448l-96 -348h170v-172h-572zM379 1667l522 383l184 -143l-567 -359zM567 713h326l-164 532z" />
<glyph unicode="&#xc2;" horiz-adv-x="1468" d="M8 0v172h154l346 1090h-232v172h644l399 -1262h151v-172h-587v172h170l-99 348h-448l-96 -348h170v-172h-572zM303 1679l344 336h121l344 -336l-131 -118l-274 241l-273 -241zM567 713h326l-164 532z" />
<glyph unicode="&#xc3;" horiz-adv-x="1468" d="M8 0v172h154l346 1090h-232v172h644l399 -1262h151v-172h-587v172h170l-99 348h-448l-96 -348h170v-172h-572zM313 1602q0 111 45 178q61 94 185 94q51 0 106.5 -22.5t102 -45t75.5 -22.5q23 0 39.5 20t16.5 64h190q0 -271 -225 -271q-48 0 -104 21t-103 42t-74 21 q-61 0 -61 -79h-193zM567 713h326l-164 532z" />
<glyph unicode="&#xc4;" horiz-adv-x="1468" d="M8 0v172h154l346 1090h-232v172h644l399 -1262h151v-172h-587v172h170l-99 348h-448l-96 -348h170v-172h-572zM365 1581v283h262v-283h-262zM567 713h326l-164 532zM778 1581v283h264v-283h-264z" />
<glyph unicode="&#xc5;" horiz-adv-x="1464" d="M8 0v172h154l346 1090h-232v172h185q-76 82 -76 213q0 151 98 233t248 82q94 0 171 -34t126 -107t49 -174q0 -179 -141 -265l383 -1210h151v-172h-587v172h170l-99 348h-448l-96 -348h170v-172h-572zM567 713h326l-164 532zM596 1647q0 -42 12.5 -73.5t33.5 -47.5 t43.5 -23.5t45.5 -7.5q49 0 91 36t42 116q0 77 -42.5 114t-90.5 37q-52 0 -93.5 -36.5t-41.5 -114.5z" />
<glyph unicode="&#xc6;" horiz-adv-x="2254" d="M-25 0v172h215l553 1090h-313v172h1686l4 -451h-207l-45 258h-541v-420h219v172h207v-551h-207v187h-219v-436h569l70 258h207l-37 -451h-1270v172h215v348h-475l-160 -348h226v-172h-697zM700 713h381v528h-112z" />
<glyph unicode="&#xc7;" horiz-adv-x="1359" d="M96 702q0 357 158.5 554.5t423.5 197.5q107 0 195.5 -36.5t127.5 -98.5l31 123h187v-481h-201q-13 58 -34 107.5t-55 95t-88 72t-122 26.5q-172 0 -268.5 -141t-96.5 -412q0 -264 114.5 -393.5t313.5 -129.5q249 0 500 150l-16 -223q-8 -5 -23.5 -14t-67.5 -32 t-109 -40.5t-145.5 -32t-179.5 -14.5h-14l-20 -62q42 -5 82 -19.5t75 -39.5t56.5 -65t21.5 -89q0 -69 -27.5 -118.5t-72.5 -73.5t-90 -34.5t-93 -10.5q-160 0 -266 63l45 139q45 -25 102 -39t103 -14q27 0 52 5.5t46 23.5t21 45q0 31 -28 53t-73 32t-80.5 14t-72.5 5l72 201 q-224 45 -354 222.5t-130 483.5z" />
<glyph unicode="&#xc8;" horiz-adv-x="1472" d="M84 0v172h215v1090h-215v172h1249l4 -451h-207l-45 258h-540v-420h219v172h207v-551h-207v187h-219v-436h571l68 258h207l-37 -451h-1270zM381 1907l184 143l522 -383l-137 -119z" />
<glyph unicode="&#xc9;" horiz-adv-x="1472" d="M84 0v172h215v1090h-215v172h1249l4 -451h-207l-45 258h-540v-420h219v172h207v-551h-207v187h-219v-436h571l68 258h207l-37 -451h-1270zM461 1667l522 383l184 -143l-567 -359z" />
<glyph unicode="&#xca;" horiz-adv-x="1472" d="M84 0v172h215v1090h-215v172h1249l4 -451h-207l-45 258h-540v-420h219v172h207v-551h-207v187h-219v-436h571l68 258h207l-37 -451h-1270zM340 1679l344 336h121l344 -336l-131 -118l-275 241l-272 -241z" />
<glyph unicode="&#xcb;" horiz-adv-x="1472" d="M84 0v172h215v1090h-215v172h1249l4 -451h-207l-45 258h-540v-420h219v172h207v-551h-207v187h-219v-436h571l68 258h207l-37 -451h-1270zM426 1581v283h262v-283h-262zM840 1581v283h264v-283h-264z" />
<glyph unicode="&#xcc;" horiz-adv-x="858" d="M80 0v172h225v1090h-225v172h698v-172h-225v-1090h225v-172h-698zM84 1907l184 143l523 -383l-138 -119z" />
<glyph unicode="&#xcd;" horiz-adv-x="858" d="M80 0v172h225v1090h-225v172h698v-172h-225v-1090h225v-172h-698zM82 1667l522 383l184 -143l-567 -359z" />
<glyph unicode="&#xce;" horiz-adv-x="858" d="M23 1679l344 336h120l344 -336l-131 -118l-274 241l-272 -241zM80 0v172h225v1090h-225v172h698v-172h-225v-1090h225v-172h-698z" />
<glyph unicode="&#xcf;" horiz-adv-x="858" d="M80 0v172h225v1090h-225v172h698v-172h-225v-1090h225v-172h-698zM94 1581v283h262v-283h-262zM508 1581v283h264v-283h-264z" />
<glyph unicode="&#xd0;" horiz-adv-x="1538" d="M74 0v172h235v457h-213v192h213v441h-235v172h676q117 0 219.5 -26t190.5 -82t151.5 -138t99 -200t35.5 -263t-37 -265t-101.5 -204t-154 -142.5t-194 -86t-220.5 -27.5h-665zM555 193h137q113 0 201.5 28.5t157 88.5t105 163t36.5 244q0 270 -132.5 397t-369.5 127h-135 v-420h336v-192h-336v-436z" />
<glyph unicode="&#xd1;" horiz-adv-x="1675" d="M90 0v172h193v1090h-193v172h539l549 -1069v897h-191v172h625v-172h-193v-1262h-307l-592 1171v-999h217v-172h-647zM438 1602q0 111 45 178q61 94 185 94q51 0 106.5 -22.5t102 -45t75.5 -22.5q23 0 39.5 20t16.5 64h190q0 -271 -225 -271q-48 0 -104 21t-103 42t-74 21 q-61 0 -61 -79h-193z" />
<glyph unicode="&#xd2;" d="M94 717q0 181 48 322t134.5 231.5t203.5 137t259 46.5q141 0 258 -46.5t204 -136.5t135 -231.5t48 -322.5t-48 -322.5t-135 -231.5t-204 -136.5t-258 -46.5q-142 0 -259 46.5t-203.5 137t-134.5 231.5t-48 322zM352 717q0 -262 100.5 -398.5t286.5 -136.5t286.5 136.5 t100.5 398.5t-100.5 398t-286.5 136t-286.5 -136t-100.5 -398zM381 1886l184 144l522 -383l-137 -119z" />
<glyph unicode="&#xd3;" d="M94 717q0 181 48 322t134.5 231.5t203.5 137t259 46.5q141 0 258 -46.5t204 -136.5t135 -231.5t48 -322.5t-48 -322.5t-135 -231.5t-204 -136.5t-258 -46.5q-142 0 -259 46.5t-203.5 137t-134.5 231.5t-48 322zM352 717q0 -262 100.5 -398.5t286.5 -136.5t286.5 136.5 t100.5 398.5t-100.5 398t-286.5 136t-286.5 -136t-100.5 -398zM379 1647l522 383l184 -144l-567 -358z" />
<glyph unicode="&#xd4;" d="M94 717q0 181 48 322t134.5 231.5t203.5 137t259 46.5q141 0 258 -46.5t204 -136.5t135 -231.5t48 -322.5t-48 -322.5t-135 -231.5t-204 -136.5t-258 -46.5q-142 0 -259 46.5t-203.5 137t-134.5 231.5t-48 322zM330 1659l344 336h121l344 -336l-131 -119l-275 242 l-272 -242zM352 717q0 -262 100.5 -398.5t286.5 -136.5t286.5 136.5t100.5 398.5t-100.5 398t-286.5 136t-286.5 -136t-100.5 -398z" />
<glyph unicode="&#xd5;" d="M94 717q0 181 48 322t134.5 231.5t203.5 137t259 46.5q141 0 258 -46.5t204 -136.5t135 -231.5t48 -322.5t-48 -322.5t-135 -231.5t-204 -136.5t-258 -46.5q-142 0 -259 46.5t-203.5 137t-134.5 231.5t-48 322zM352 717q0 -262 100.5 -398.5t286.5 -136.5t286.5 136.5 t100.5 398.5t-100.5 398t-286.5 136t-286.5 -136t-100.5 -398zM354 1581q0 111 45 178q61 94 185 94q51 0 106.5 -22.5t102 -45t75.5 -22.5q23 0 39.5 20t16.5 64h190q0 -145 -59.5 -207.5t-165.5 -62.5q-48 0 -104 21t-103 42t-74 21q-26 0 -43.5 -18.5t-17.5 -61.5h-193z " />
<glyph unicode="&#xd6;" d="M94 717q0 181 48 322t134.5 231.5t203.5 137t259 46.5q141 0 258 -46.5t204 -136.5t135 -231.5t48 -322.5t-48 -322.5t-135 -231.5t-204 -136.5t-258 -46.5q-142 0 -259 46.5t-203.5 137t-134.5 231.5t-48 322zM352 717q0 -262 100.5 -398.5t286.5 -136.5t286.5 136.5 t100.5 398.5t-100.5 398t-286.5 136t-286.5 -136t-100.5 -398zM395 1561v282h262v-282h-262zM809 1561v282h264v-282h-264z" />
<glyph unicode="&#xd7;" horiz-adv-x="1394" d="M74 1153l168 156l456 -437l459 437l164 -156l-453 -432l451 -428l-158 -164l-463 438l-458 -438l-162 164l459 428z" />
<glyph unicode="&#xd8;" horiz-adv-x="1476" d="M94 717q0 181 48 322t134.5 231.5t203.5 137t259 46.5q149 0 273 -53l141 254l156 -84l-148 -264q223 -197 223 -590q0 -181 -48 -322.5t-135 -231.5t-204 -136.5t-258 -46.5q-156 0 -288 57l-125 -223l-160 86l137 237q-209 193 -209 580zM352 717q0 -224 74 -359 l481 856q-73 37 -168 37q-186 0 -286.5 -136t-100.5 -398zM555 225q79 -43 184 -43q186 0 286.5 136.5t100.5 398.5q0 237 -86 375z" />
<glyph unicode="&#xd9;" horiz-adv-x="1650" d="M59 1262v172h633v-172h-211v-717q0 -365 348 -365q347 0 347 363v719h-213v172h632v-172h-172v-717q0 -276 -157 -420.5t-449 -144.5q-281 0 -434.5 138t-153.5 414v730h-170zM469 1907l184 143l523 -383l-138 -119z" />
<glyph unicode="&#xda;" horiz-adv-x="1650" d="M59 1262v172h633v-172h-211v-717q0 -365 348 -365q347 0 347 363v719h-213v172h632v-172h-172v-717q0 -276 -157 -420.5t-449 -144.5q-281 0 -434.5 138t-153.5 414v730h-170zM467 1667l522 383l185 -143l-568 -359z" />
<glyph unicode="&#xdb;" horiz-adv-x="1650" d="M59 1262v172h633v-172h-211v-717q0 -365 348 -365q347 0 347 363v719h-213v172h632v-172h-172v-717q0 -276 -157 -420.5t-449 -144.5q-281 0 -434.5 138t-153.5 414v730h-170zM422 1679l344 336h121l344 -336l-131 -118l-275 241l-272 -241z" />
<glyph unicode="&#xdc;" horiz-adv-x="1650" d="M59 1262v172h633v-172h-211v-717q0 -365 348 -365q347 0 347 363v719h-213v172h632v-172h-172v-717q0 -276 -157 -420.5t-449 -144.5q-281 0 -434.5 138t-153.5 414v730h-170zM481 1581v283h262v-283h-262zM895 1581v283h264v-283h-264z" />
<glyph unicode="&#xdd;" horiz-adv-x="1484" d="M-4 1262v172h659v-172h-204l309 -537l303 537h-199v172h625v-172h-176l-445 -736v-354h232v-172h-711v172h232v354l-449 736h-176zM463 1667l522 383l184 -143l-567 -359z" />
<glyph unicode="&#xde;" horiz-adv-x="1443" d="M80 0v172h231v1090h-231v172h741v-172h-260v-109h338q222 0 357 -117t135 -307t-140 -314t-374 -124h-316v-119h260v-172h-741zM561 483h303q130 0 204.5 65.5t74.5 176.5q0 107 -72 171.5t-184 64.5h-326v-478z" />
<glyph unicode="&#xdf;" horiz-adv-x="1323" d="M74 0v160h170v684h-170v180h170v37q0 91 31 171.5t89.5 142.5t150 98t204.5 36q101 0 191.5 -36.5t152 -115t61.5 -183.5q0 -68 -23.5 -134t-51 -108t-51 -87t-23.5 -77q0 -23 17 -46t43.5 -43.5t59.5 -44t65.5 -54t59 -66t43.5 -87.5t17 -112q0 -69 -25.5 -129 t-75 -106.5t-128.5 -73t-179 -26.5q-145 0 -247 32v197q97 -33 206 -33q39 0 72.5 7t63 22.5t46.5 44.5t17 69q0 39 -22.5 73t-56 57.5t-73 53t-73 59t-56 75.5t-22.5 102q0 53 26 114t57 106.5t57 98t26 91.5q0 66 -46 112t-132 46q-48 0 -86.5 -12.5t-62.5 -31 t-41.5 -47.5t-26 -53t-13.5 -57t-5.5 -51t-0.5 -43v-1012h-405z" />
<glyph unicode="&#xe0;" horiz-adv-x="1099" d="M66 268q0 53 14 96.5t42 75.5t62 56.5t82.5 41.5t93.5 28.5t105 18.5t108 10.5t111 6.5v70q0 96 -41 137t-141 41q-81 0 -146 -29l-32 -166h-174v389h159l15 -61q99 61 254 61q166 0 255 -75.5t89 -249.5v-455q0 -66 13.5 -86t47.5 -20t88 22l-10 -155q-70 -45 -160 -45 q-154 0 -192 122q-47 -50 -131.5 -86t-190.5 -36q-149 0 -235 78t-86 210zM174 1477l184 143l523 -383l-138 -119zM305 279q0 -115 131 -115q64 0 126 26t92 52l30 26v170q-78 -7 -122 -11.5t-94 -13t-75 -18.5t-48 -26t-31.5 -38t-8.5 -52z" />
<glyph unicode="&#xe1;" horiz-adv-x="1099" d="M66 268q0 53 14 96.5t42 75.5t62 56.5t82.5 41.5t93.5 28.5t105 18.5t108 10.5t111 6.5v70q0 96 -41 137t-141 41q-81 0 -146 -29l-32 -166h-174v389h159l15 -61q99 61 254 61q166 0 255 -75.5t89 -249.5v-455q0 -66 13.5 -86t47.5 -20t88 22l-10 -155q-70 -45 -160 -45 q-154 0 -192 122q-47 -50 -131.5 -86t-190.5 -36q-149 0 -235 78t-86 210zM213 1237l522 383l185 -143l-568 -359zM305 279q0 -115 131 -115q64 0 126 26t92 52l30 26v170q-78 -7 -122 -11.5t-94 -13t-75 -18.5t-48 -26t-31.5 -38t-8.5 -52z" />
<glyph unicode="&#xe2;" horiz-adv-x="1099" d="M66 268q0 53 14 96.5t42 75.5t62 56.5t82.5 41.5t93.5 28.5t105 18.5t108 10.5t111 6.5v70q0 96 -41 137t-141 41q-81 0 -146 -29l-32 -166h-174v389h159l15 -61q99 61 254 61q166 0 255 -75.5t89 -249.5v-455q0 -66 13.5 -86t47.5 -20t88 22l-10 -155q-70 -45 -160 -45 q-154 0 -192 122q-47 -50 -131.5 -86t-190.5 -36q-149 0 -235 78t-86 210zM127 1249l344 336h121l344 -336l-131 -119l-275 242l-272 -242zM305 279q0 -115 131 -115q64 0 126 26t92 52l30 26v170q-78 -7 -122 -11.5t-94 -13t-75 -18.5t-48 -26t-31.5 -38t-8.5 -52z" />
<glyph unicode="&#xe3;" horiz-adv-x="1099" d="M66 268q0 53 14 96.5t42 75.5t62 56.5t82.5 41.5t93.5 28.5t105 18.5t108 10.5t111 6.5v70q0 96 -41 137t-141 41q-81 0 -146 -29l-32 -166h-174v389h159l15 -61q99 61 254 61q166 0 255 -75.5t89 -249.5v-455q0 -66 13.5 -86t47.5 -20t88 22l-10 -155q-70 -45 -160 -45 q-154 0 -192 122q-47 -50 -131.5 -86t-190.5 -36q-149 0 -235 78t-86 210zM141 1171q0 112 45 179q61 94 185 94q51 0 106.5 -22.5t102 -45t75.5 -22.5q23 0 39.5 20t16.5 64h190q0 -271 -225 -271q-48 0 -104 21t-103 42t-74 21q-26 0 -43.5 -18.5t-17.5 -61.5h-193z M305 279q0 -115 131 -115q64 0 126 26t92 52l30 26v170q-78 -7 -122 -11.5t-94 -13t-75 -18.5t-48 -26t-31.5 -38t-8.5 -52z" />
<glyph unicode="&#xe4;" horiz-adv-x="1099" d="M66 268q0 53 14 96.5t42 75.5t62 56.5t82.5 41.5t93.5 28.5t105 18.5t108 10.5t111 6.5v70q0 96 -41 137t-141 41q-81 0 -146 -29l-32 -166h-174v389h159l15 -61q99 61 254 61q166 0 255 -75.5t89 -249.5v-455q0 -66 13.5 -86t47.5 -20t88 22l-10 -155q-70 -45 -160 -45 q-154 0 -192 122q-47 -50 -131.5 -86t-190.5 -36q-149 0 -235 78t-86 210zM164 1151v283h262v-283h-262zM305 279q0 -115 131 -115q64 0 126 26t92 52l30 26v170q-78 -7 -122 -11.5t-94 -13t-75 -18.5t-48 -26t-31.5 -38t-8.5 -52zM578 1151v283h264v-283h-264z" />
<glyph unicode="&#xe5;" horiz-adv-x="1099" d="M66 268q0 53 14 96.5t42 75.5t62 56.5t82.5 41.5t93.5 28.5t105 18.5t108 10.5t111 6.5v70q0 96 -41 137t-141 41q-81 0 -146 -29l-32 -166h-174v389h159l15 -61q99 61 254 61q166 0 255 -75.5t89 -249.5v-455q0 -66 13.5 -86t47.5 -20t88 22l-10 -155q-70 -45 -160 -45 q-154 0 -192 122q-47 -50 -131.5 -86t-190.5 -36q-149 0 -235 78t-86 210zM219 1395q0 130 85 201t214 71q127 0 213 -71.5t86 -200.5q0 -131 -86 -203t-213 -72q-129 0 -214 72t-85 203zM305 279q0 -115 131 -115q64 0 126 26t92 52l30 26v170q-78 -7 -122 -11.5t-94 -13 t-75 -18.5t-48 -26t-31.5 -38t-8.5 -52zM401 1395q0 -69 36 -100t81 -31q43 0 79 31t36 100q0 66 -36.5 98.5t-78.5 32.5q-44 0 -80.5 -32t-36.5 -99z" />
<glyph unicode="&#xe6;" horiz-adv-x="1658" d="M72 276q0 67 18.5 119.5t44 88t77 60.5t92.5 38.5t117.5 22.5t125 12t139.5 6v67q0 160 -180 160q-85 0 -150 -29l-32 -166h-174v389h159l15 -61q113 61 233 61q193 0 289 -108q123 108 307 108q56 0 107.5 -9t111 -39t102.5 -78t72 -134t29 -200v-105q-345 -10 -631 -18 q4 -140 80.5 -215.5t179.5 -75.5q101 0 192 28t132 56l41 27l-6 -185q-4 -5 -12 -12.5t-40 -27.5t-72 -35.5t-111 -28t-154 -12.5q-237 0 -369 153q-153 -153 -397 -153q-154 0 -245 82.5t-91 213.5zM317 295q0 -62 37.5 -92.5t102.5 -30.5q61 0 111.5 13.5t81 35.5t46 37.5 t25.5 30.5q-18 51 -31 164l-57 -2q-176 -6 -246 -40.5t-70 -115.5zM944 631q389 12 389 14q0 215 -178 215q-88 0 -149.5 -49.5t-61.5 -155.5v-24z" />
<glyph unicode="&#xe7;" horiz-adv-x="1058" d="M78 510q0 254 126.5 394t330.5 140q65 0 132 -28.5t93 -67.5l33 96h149v-403h-172q-54 219 -221 219q-110 0 -173 -86.5t-63 -255.5q0 -176 84.5 -259t212.5 -83q190 0 369 113l-6 -203q-7 -4 -19 -11t-52.5 -25t-84 -32t-110.5 -25.5t-134 -12.5l-20 -62q42 -5 82 -19.5 t75 -39.5t56.5 -65t21.5 -89q0 -56 -19 -99.5t-47.5 -68.5t-67.5 -41.5t-75 -22t-73 -5.5q-160 0 -266 63l45 139q45 -25 102 -39t102 -14q27 0 52 5.5t46 23.5t21 45q0 31 -28 53t-73 32t-80.5 14t-72.5 5l72 201q-164 36 -256 166.5t-92 347.5z" />
<glyph unicode="&#xe8;" horiz-adv-x="1071" d="M74 510q0 107 30 201.5t88 169.5t152 119t213 44q198 0 315 -122.5t117 -339.5v-121h-674q17 -285 297 -285q190 0 369 113l-6 -207q-48 -34 -155 -68t-247 -34q-231 0 -365 135t-134 395zM266 1477l185 143l522 -383l-137 -119zM322 641h430q-1 60 -17.5 104t-45.5 68.5 t-63.5 35.5t-76.5 11q-90 0 -157 -61.5t-70 -157.5z" />
<glyph unicode="&#xe9;" horiz-adv-x="1071" d="M74 510q0 107 30 201.5t88 169.5t152 119t213 44q198 0 315 -122.5t117 -339.5v-121h-674q17 -285 297 -285q190 0 369 113l-6 -207q-48 -34 -155 -68t-247 -34q-231 0 -365 135t-134 395zM223 1237l522 383l185 -143l-568 -359zM322 641h430q-1 60 -17.5 104t-45.5 68.5 t-63.5 35.5t-76.5 11q-90 0 -157 -61.5t-70 -157.5z" />
<glyph unicode="&#xea;" horiz-adv-x="1071" d="M74 510q0 107 30 201.5t88 169.5t152 119t213 44q198 0 315 -122.5t117 -339.5v-121h-674q17 -285 297 -285q190 0 369 113l-6 -207q-48 -34 -155 -68t-247 -34q-231 0 -365 135t-134 395zM143 1249l344 336h121l344 -336l-131 -119l-274 242l-273 -242zM322 641h430 q-1 60 -17.5 104t-45.5 68.5t-63.5 35.5t-76.5 11q-90 0 -157 -61.5t-70 -157.5z" />
<glyph unicode="&#xeb;" horiz-adv-x="1071" d="M74 510q0 107 30 201.5t88 169.5t152 119t213 44q198 0 315 -122.5t117 -339.5v-121h-674q17 -285 297 -285q190 0 369 113l-6 -207q-48 -34 -155 -68t-247 -34q-231 0 -365 135t-134 395zM195 1151v283h262v-283h-262zM322 641h430q-1 60 -17.5 104t-45.5 68.5 t-63.5 35.5t-76.5 11q-90 0 -157 -61.5t-70 -157.5zM608 1151v283h264v-283h-264z" />
<glyph unicode="&#xec;" horiz-adv-x="669" d="M-4 1477l184 143l522 -383l-137 -119zM72 0v160h164v704h-162v160h397v-864h164v-160h-563z" />
<glyph unicode="&#xed;" horiz-adv-x="669" d="M-6 1237l522 383l184 -143l-567 -359zM72 0v160h164v704h-162v160h397v-864h164v-160h-563z" />
<glyph unicode="&#xee;" horiz-adv-x="669" d="M-55 1249l344 336h121l344 -336l-131 -119l-275 242l-272 -242zM72 0v160h164v704h-162v160h397v-864h164v-160h-563z" />
<glyph unicode="&#xef;" horiz-adv-x="669" d="M10 1151v283h262v-283h-262zM72 0v160h164v704h-162v160h397v-864h164v-160h-563zM424 1151v283h264v-283h-264z" />
<glyph unicode="&#xf0;" horiz-adv-x="1157" d="M74 508q0 252 130.5 394t346.5 142q56 0 117 -19t88 -46q-68 118 -193 246l-168 -99l-73 123l133 78q-94 85 -193 146l209 98q105 -73 176 -133l189 108l69 -127l-149 -86q321 -340 321 -794q0 -262 -137.5 -410.5t-355.5 -148.5q-107 0 -198.5 33t-161.5 96.5 t-110 165.5t-40 233zM311 512q0 -167 73.5 -253.5t190.5 -86.5q119 0 193 86.5t74 253.5t-74 253.5t-193 86.5q-117 0 -190.5 -86.5t-73.5 -253.5z" />
<glyph unicode="&#xf1;" horiz-adv-x="1308" d="M74 0v160h143v704h-143v160h375v-139q150 159 339 159q82 0 145 -20.5t99 -51.5t58.5 -74t30 -81.5t7.5 -81.5v-575h144v-160h-379v709q0 67 -42 103t-108 36q-77 0 -144 -35t-146 -104v-549h161v-160h-540zM274 1171q0 112 45 179q61 94 185 94q51 0 106.5 -22.5 t102 -45t75.5 -22.5q23 0 39.5 20t16.5 64h190q0 -271 -225 -271q-48 0 -104 21t-103 42t-74 21q-26 0 -43.5 -18.5t-17.5 -61.5h-193z" />
<glyph unicode="&#xf2;" horiz-adv-x="1153" d="M74 512q0 172 67.5 294t179 180t254.5 58q107 0 198 -34t159.5 -99t107.5 -167.5t39 -231.5q0 -130 -38.5 -232.5t-107.5 -167.5t-160 -98.5t-198 -33.5t-197 33.5t-158.5 98.5t-107 167.5t-38.5 232.5zM221 1477l185 143l522 -383l-137 -119zM311 512 q0 -167 73.5 -253.5t190.5 -86.5q119 0 193 86.5t74 253.5t-74 253.5t-193 86.5q-117 0 -190.5 -86.5t-73.5 -253.5z" />
<glyph unicode="&#xf3;" horiz-adv-x="1153" d="M74 512q0 172 67.5 294t179 180t254.5 58q107 0 198 -34t159.5 -99t107.5 -167.5t39 -231.5q0 -130 -38.5 -232.5t-107.5 -167.5t-160 -98.5t-198 -33.5t-197 33.5t-158.5 98.5t-107 167.5t-38.5 232.5zM219 1237l522 383l185 -143l-568 -359zM311 512 q0 -167 73.5 -253.5t190.5 -86.5q119 0 193 86.5t74 253.5t-74 253.5t-193 86.5q-117 0 -190.5 -86.5t-73.5 -253.5z" />
<glyph unicode="&#xf4;" horiz-adv-x="1153" d="M74 512q0 172 67.5 294t179 180t254.5 58q107 0 198 -34t159.5 -99t107.5 -167.5t39 -231.5q0 -130 -38.5 -232.5t-107.5 -167.5t-160 -98.5t-198 -33.5t-197 33.5t-158.5 98.5t-107 167.5t-38.5 232.5zM170 1249l344 336h121l344 -336l-131 -119l-275 242l-272 -242z M311 512q0 -167 73.5 -253.5t190.5 -86.5q119 0 193 86.5t74 253.5t-74 253.5t-193 86.5q-117 0 -190.5 -86.5t-73.5 -253.5z" />
<glyph unicode="&#xf5;" horiz-adv-x="1153" d="M74 512q0 172 67.5 294t179 180t254.5 58q107 0 198 -34t159.5 -99t107.5 -167.5t39 -231.5q0 -130 -38.5 -232.5t-107.5 -167.5t-160 -98.5t-198 -33.5t-197 33.5t-158.5 98.5t-107 167.5t-38.5 232.5zM195 1171q0 112 45 179q61 94 184 94q51 0 107 -22.5t102.5 -45 t75.5 -22.5q23 0 39 20t16 64h190q0 -271 -225 -271q-48 0 -103.5 21t-102.5 42t-74 21q-26 0 -44 -18.5t-18 -61.5h-192zM311 512q0 -167 73.5 -253.5t190.5 -86.5q119 0 193 86.5t74 253.5t-74 253.5t-193 86.5q-117 0 -190.5 -86.5t-73.5 -253.5z" />
<glyph unicode="&#xf6;" horiz-adv-x="1153" d="M74 512q0 172 67.5 294t179 180t254.5 58q107 0 198 -34t159.5 -99t107.5 -167.5t39 -231.5q0 -130 -38.5 -232.5t-107.5 -167.5t-160 -98.5t-198 -33.5t-197 33.5t-158.5 98.5t-107 167.5t-38.5 232.5zM236 1151v283h262v-283h-262zM311 512q0 -167 73.5 -253.5 t190.5 -86.5q119 0 193 86.5t74 253.5t-74 253.5t-193 86.5q-117 0 -190.5 -86.5t-73.5 -253.5zM649 1151v283h264v-283h-264z" />
<glyph unicode="&#xf7;" horiz-adv-x="1185" d="M76 621v200h1034v-200h-1034zM436 199v299h309v-299h-309zM436 944v299h309v-299h-309z" />
<glyph unicode="&#xf8;" horiz-adv-x="1153" d="M74 512q0 172 67.5 294t179 180t254.5 58q120 0 218 -40l141 243l125 -69l-144 -250q164 -144 164 -416q0 -130 -38.5 -232.5t-107.5 -167.5t-160 -98.5t-198 -33.5q-100 0 -186 28l-131 -225l-125 72l127 221q-186 142 -186 436zM311 512q0 -153 62 -240l319 553 q-55 27 -117 27q-117 0 -190.5 -86.5t-73.5 -253.5zM489 186q38 -14 86 -14q119 0 193 86.5t74 253.5q0 127 -45 209z" />
<glyph unicode="&#xf9;" horiz-adv-x="1257" d="M51 864v160h357v-692q0 -156 147 -156q77 0 139 34t144 105v549h-185v160h420v-864h123v-160h-354v139q-150 -159 -332 -159q-82 0 -144.5 21t-97.5 52t-56.5 75.5t-28.5 83t-7 81.5v571h-125zM268 1477l185 143l522 -383l-137 -119z" />
<glyph unicode="&#xfa;" horiz-adv-x="1257" d="M51 864v160h357v-692q0 -156 147 -156q77 0 139 34t144 105v549h-185v160h420v-864h123v-160h-354v139q-150 -159 -332 -159q-82 0 -144.5 21t-97.5 52t-56.5 75.5t-28.5 83t-7 81.5v571h-125zM289 1237l522 383l184 -143l-567 -359z" />
<glyph unicode="&#xfb;" horiz-adv-x="1257" d="M51 864v160h357v-692q0 -156 147 -156q77 0 139 34t144 105v549h-185v160h420v-864h123v-160h-354v139q-150 -159 -332 -159q-82 0 -144.5 21t-97.5 52t-56.5 75.5t-28.5 83t-7 81.5v571h-125zM184 1249l344 336h121l344 -336l-131 -119l-274 242l-273 -242z" />
<glyph unicode="&#xfc;" horiz-adv-x="1257" d="M51 864v160h357v-692q0 -156 147 -156q77 0 139 34t144 105v549h-185v160h420v-864h123v-160h-354v139q-150 -159 -332 -159q-82 0 -144.5 21t-97.5 52t-56.5 75.5t-28.5 83t-7 81.5v571h-125zM256 1151v283h262v-283h-262zM670 1151v283h264v-283h-264z" />
<glyph unicode="&#xfd;" horiz-adv-x="1191" d="M-23 -207q105 -45 224 -45q105 0 157.5 48.5t102.5 174.5l-322 893h-131v160h334l254 -795l244 635h-162v160h506v-160h-113l-332 -794q-4 -9 -18 -43.5t-18.5 -45t-18 -41.5t-19.5 -44t-18.5 -40t-20 -41t-20 -36t-22.5 -37t-22.5 -32.5t-24.5 -31.5 q-107 -129 -314 -129q-51 0 -109.5 9.5t-91.5 18.5l-32 9zM272 1237l523 383l184 -143l-567 -359z" />
<glyph unicode="&#xfe;" horiz-adv-x="1224" d="M4 -291h146v1606h-146v160h377v-576q50 67 129 106t182 39q211 0 334 -139t123 -395q0 -106 -29 -200.5t-83.5 -168.5t-142.5 -117.5t-198 -43.5q-103 0 -182 31t-133 110v-412h190v-160h-567v160zM381 512q0 -167 73.5 -253.5t190.5 -86.5q119 0 192.5 86t73.5 254 t-73.5 254t-192.5 86q-117 0 -190.5 -86.5t-73.5 -253.5z" />
<glyph unicode="&#xff;" horiz-adv-x="1191" d="M-23 -207q105 -45 224 -45q105 0 157.5 48.5t102.5 174.5l-322 893h-131v160h334l254 -795l244 635h-162v160h506v-160h-113l-332 -794q-4 -9 -18 -43.5t-18.5 -45t-18 -41.5t-19.5 -44t-18.5 -40t-20 -41t-20 -36t-22.5 -37t-22.5 -32.5t-24.5 -31.5 q-107 -129 -314 -129q-51 0 -109.5 9.5t-91.5 18.5l-32 9zM248 1151v283h262v-283h-262zM662 1151v283h264v-283h-264z" />
<glyph unicode="&#x152;" horiz-adv-x="2254" d="M92 721q0 179 58 318.5t158.5 224t228 127.5t274.5 43h1288l4 -451h-207l-43 258h-542v-420h221v172h207v-551h-207v187h-221v-436h592l69 258h207l-39 -451h-1364q-146 0 -268.5 44t-216 130.5t-146.5 226.5t-53 320zM344 717q0 -138 38.5 -241t108.5 -164t159.5 -90 t199.5 -29h215v1048h-223q-242 0 -370 -138t-128 -386z" />
<glyph unicode="&#x153;" horiz-adv-x="1851" d="M74 512q0 171 68 293.5t180.5 180.5t255.5 58q118 0 217.5 -48t160.5 -138q55 86 154.5 136t226.5 50q196 0 314 -122.5t118 -339.5v-121h-690q0 -144 82 -214.5t225 -70.5q193 0 375 113l-6 -207q-50 -34 -158.5 -68t-248.5 -34q-129 0 -234.5 44.5t-163.5 131.5 q-69 -86 -160 -131t-231 -45q-102 0 -189 33.5t-153.5 98.5t-104.5 167.5t-38 232.5zM313 512q0 -166 76.5 -252t194.5 -86t189 85t71 253t-71 254t-189 86t-194.5 -87t-76.5 -253zM1085 641h445q-1 60 -18.5 102.5t-47.5 65.5t-65 33t-78 10q-91 0 -156.5 -54t-79.5 -157z " />
<glyph unicode="&#x178;" horiz-adv-x="1484" d="M-4 1262v172h659v-172h-204l309 -537l303 537h-199v172h625v-172h-176l-445 -736v-354h232v-172h-711v172h232v354l-449 736h-176zM414 1546v283h262v-283h-262zM827 1546v283h265v-283h-265z" />
<glyph unicode="&#x2c6;" horiz-adv-x="1040" d="M115 1249l344 336h121l344 -336l-131 -119l-275 242l-272 -242z" />
<glyph unicode="&#x2dc;" horiz-adv-x="993" d="M115 1171q0 112 45 179q61 94 184 94q51 0 107 -22.5t102.5 -45t75.5 -22.5q23 0 39 20t16 64h190q0 -271 -225 -271q-48 0 -103.5 21t-102.5 42t-74 21q-26 0 -44 -18.5t-18 -61.5h-192z" />
<glyph unicode="&#x2000;" horiz-adv-x="1025" />
<glyph unicode="&#x2001;" horiz-adv-x="2050" />
<glyph unicode="&#x2002;" horiz-adv-x="1025" />
<glyph unicode="&#x2003;" horiz-adv-x="2050" />
<glyph unicode="&#x2004;" horiz-adv-x="683" />
<glyph unicode="&#x2005;" horiz-adv-x="512" />
<glyph unicode="&#x2006;" horiz-adv-x="341" />
<glyph unicode="&#x2007;" horiz-adv-x="341" />
<glyph unicode="&#x2008;" horiz-adv-x="256" />
<glyph unicode="&#x2009;" horiz-adv-x="410" />
<glyph unicode="&#x200a;" horiz-adv-x="113" />
<glyph unicode="&#x2010;" horiz-adv-x="929" d="M102 571v201h723v-201h-723z" />
<glyph unicode="&#x2011;" horiz-adv-x="929" d="M102 571v201h723v-201h-723z" />
<glyph unicode="&#x2012;" horiz-adv-x="929" d="M102 571v201h723v-201h-723z" />
<glyph unicode="&#x2013;" horiz-adv-x="1411" d="M102 571v201h1205v-201h-1205z" />
<glyph unicode="&#x2014;" horiz-adv-x="2072" d="M102 571v201h1866v-201h-1866z" />
<glyph unicode="&#x2018;" horiz-adv-x="573" d="M102 748v301l205 385h189l-127 -342h84v-344h-351z" />
<glyph unicode="&#x2019;" horiz-adv-x="550" d="M86 748l129 342h-86v344h350v-301l-205 -385h-188z" />
<glyph unicode="&#x201a;" horiz-adv-x="600" d="M82 -342l127 342h-84v344h350v-301l-205 -385h-188z" />
<glyph unicode="&#x201c;" horiz-adv-x="1036" d="M102 748v301l205 385h189l-127 -342h84v-344h-351zM565 748v301l205 385h188l-127 -342h87v-344h-353z" />
<glyph unicode="&#x201d;" horiz-adv-x="1015" d="M86 748l129 342h-86v344h350v-301l-205 -385h-188zM551 748l127 342h-86v344h352v-301l-205 -385h-188z" />
<glyph unicode="&#x201e;" horiz-adv-x="1062" d="M82 -342l127 342h-84v344h350v-301l-205 -385h-188zM547 -342l127 342h-86v344h350v-301l-205 -385h-186z" />
<glyph unicode="&#x2022;" horiz-adv-x="837" d="M80 721q0 138 98.5 236t239.5 98t240.5 -98t99.5 -236t-99.5 -235t-240.5 -97t-239.5 97t-98.5 235z" />
<glyph unicode="&#x2026;" horiz-adv-x="1939" d="M125 0v344h348v-344h-348zM795 0v344h352v-344h-352zM1466 0v344h349v-344h-349z" />
<glyph unicode="&#x202f;" horiz-adv-x="410" />
<glyph unicode="&#x2039;" horiz-adv-x="731" d="M27 496v45l383 483h270l-397 -506l397 -518h-270z" />
<glyph unicode="&#x203a;" horiz-adv-x="731" d="M51 0l398 518l-398 506h273l381 -483v-45l-381 -496h-273z" />
<glyph unicode="&#x205f;" horiz-adv-x="512" />
<glyph unicode="&#x20ac;" horiz-adv-x="1425" d="M72 453v159h141q-2 20 -2 86v93h-139v159h159q46 244 183 374t348 130q107 0 196.5 -36.5t128.5 -98.5l31 123h185v-481h-201q-12 58 -33.5 107.5t-56 95t-88.5 72t-121 26.5q-252 0 -314 -312h486v-159h-506v-82q0 -72 2 -97h504v-159h-471q83 -267 373 -267 q75 0 144.5 14t134 42.5t95 45t84.5 48.5l-16 -223q-6 -5 -19 -14t-58 -32t-96 -40.5t-135 -32t-175 -14.5q-235 0 -391 117.5t-209 355.5h-164z" />
<glyph unicode="&#x2122;" horiz-adv-x="2572" d="M80 1067v367h917v-367h-163l-33 209h-162v-635h207v-156h-617v156h205v635h-158l-32 -209h-164zM1151 485v156h186v635h-186v158h465l194 -406l211 406h447v-158h-187v-635h187v-156h-580v156h191v543l-185 -363h-172l-182 367v-547h191v-156h-580z" />
<glyph unicode="&#xe000;" horiz-adv-x="1024" d="M0 0v1024h1024v-1024h-1024z" />
</font>
</defs>
</svg>
