<?xml version="1.0" standalone="no"?>
<!DOCTYPE svg PUBLIC "-//W3C//DTD SVG 1.1//EN" "http://www.w3.org/Graphics/SVG/1.1/DTD/svg11.dtd" >
<svg xmlns="http://www.w3.org/2000/svg">
<metadata></metadata>
<defs>
<font id="outsidersbold_italic" horiz-adv-x="1363" >
<font-face units-per-em="2048" ascent="1536" descent="-512" />
<missing-glyph horiz-adv-x="481" />
<glyph unicode="&#xfb01;" horiz-adv-x="1214" d="M-332 -360l119 186q2 -4 6 -10.5t19 -23.5t32.5 -30t47 -23.5t61.5 -10.5q34 0 59.5 12t40.5 27.5t27.5 46t17.5 51.5t13 59l186 920h-191l35 180h193l45 199q37 166 136 251t257 85q55 0 108 -10t90 -24.5t66 -28.5t44 -24l14 -10l-101 -207q-3 4 -9.5 10.5t-27 22.5 t-43 28.5t-57 23t-68.5 10.5q-46 0 -80.5 -17t-54 -47t-30 -57t-17.5 -62l-31 -143h588q-22 -64 -56 -165.5t-100 -319t-85 -322.5l264 121l-49 -199q-28 -18 -72 -44.5t-142.5 -70.5t-152.5 -44q-47 0 -81 29t-34 75q0 56 50.5 246t100.5 352l50 162h-319l-193 -973 q-34 -169 -124.5 -259.5t-256.5 -90.5q-60 0 -112.5 12.5t-84.5 30t-55.5 34.5t-32.5 30z" />
<glyph unicode="&#xfb02;" horiz-adv-x="1312" d="M-332 -360l119 186q2 -4 6 -10.5t19 -23.5t32.5 -30t47 -23.5t61.5 -10.5q34 0 59.5 12t40.5 27.5t27.5 46t17.5 51.5t13 59l186 920h-191l35 180h193l45 199q37 164 136 250t257 86q60 0 115.5 -12.5t92 -30.5t64 -35.5t40.5 -30.5l12 -12l233 37q-293 -1022 -336 -1258 l264 121l-49 -199q-10 -6 -27 -17t-66 -38.5t-92.5 -48.5t-95 -38t-85.5 -17q-47 0 -81 29t-34 69q0 102 270 1157q-26 45 -82 79t-127 34q-48 0 -82.5 -16.5t-54 -47t-28.5 -56t-17 -61.5l-31 -143h259l-46 -180h-251l-193 -973q-34 -169 -124.5 -259.5t-256.5 -90.5 q-60 0 -112.5 12.5t-84.5 30t-55.5 34.5t-32.5 30z" />
<glyph horiz-adv-x="2048" />
<glyph horiz-adv-x="2048" />
<glyph unicode="&#xd;" horiz-adv-x="2048" />
<glyph unicode=" "  horiz-adv-x="481" />
<glyph unicode="&#x09;" horiz-adv-x="481" />
<glyph unicode="&#xa0;" horiz-adv-x="481" />
<glyph unicode="!" horiz-adv-x="655" d="M18 0l93 344h348l-92 -344h-349zM229 483l170 951h344l-337 -951h-177z" />
<glyph unicode="&#x22;" horiz-adv-x="927" d="M180 748l185 686h317l-313 -686h-189zM602 748l184 686h318l-313 -686h-189z" />
<glyph unicode="#" horiz-adv-x="1476" d="M39 428l84 176h293l104 215h-295l88 176h291l211 439h205l-211 -439h227l213 439h207l-213 -439h295l-82 -176h-299l-102 -215h297l-80 -176h-297l-203 -428h-211l205 428h-225l-207 -428h-213l209 428h-291zM623 604h225l104 215h-225z" />
<glyph unicode="$" horiz-adv-x="1193" d="M16 55l103 383h188l-47 -239q42 -19 129 -29l141 473q-76 38 -108 57q-94 59 -143.5 132t-49.5 188q0 106 44.5 190t121 136t173 79t206.5 29l57 188h166l-59 -196q201 -18 311 -68l-112 -377h-183l47 246q-51 11 -118 17l-140 -463q54 -27 81.5 -42t71 -41.5t66 -45.5 t50.5 -49t41.5 -59t23.5 -67.5t10 -82.5q0 -137 -82 -239t-214.5 -152.5t-296.5 -51.5l-70 -231h-164l72 242q-78 9 -157 27t-119 32zM477 1049q0 -46 19.5 -79.5t66.5 -68.5q9 -7 21.5 -14.5t15.5 -9.5l117 385q-102 -12 -171 -64.5t-69 -148.5zM551 164q124 11 204.5 69 t80.5 156q0 50 -24 82.5t-79 67.5l-59 32z" />
<glyph unicode="%" horiz-adv-x="1656" d="M92 74l1292 1208h-544q24 -52 24 -127q0 -80 -25 -153.5t-70 -130t-114 -90t-151 -33.5q-126 0 -204.5 74t-78.5 208q0 72 24.5 143t69 130t115 95t154.5 36q83 0 145 -33h782l68 63l88 -102l-1477 -1389zM408 1034q0 -64 28.5 -95.5t75.5 -31.5q74 0 122 68.5t48 161.5 q0 70 -29 104.5t-80 34.5q-42 0 -75.5 -24t-52 -62t-28 -78t-9.5 -78zM893 262q0 98 40.5 188.5t125.5 153t196 62.5q56 0 104.5 -16t89 -49t64 -89.5t23.5 -130.5q0 -77 -25 -148.5t-70 -128t-114.5 -90.5t-152.5 -34q-124 0 -202.5 74t-78.5 208zM1079 266q0 -64 29 -95.5 t76 -31.5q74 0 122 68.5t48 161.5q0 70 -29 104.5t-80 34.5q-55 0 -95 -42t-55.5 -95t-15.5 -105z" />
<glyph unicode="&#x26;" horiz-adv-x="1691" d="M131 467q0 227 191 348q-93 120 -93 266q0 161 108 267t284 106q142 0 229.5 -70.5t87.5 -191.5q0 -106 -64 -166.5t-157 -60.5q-84 0 -135 45l24 125q27 -19 60 -19q27 0 51 17.5t24 56.5q0 41 -28.5 65.5t-81.5 24.5q-78 0 -127 -54.5t-49 -152.5q0 -112 41 -178 q30 6 71 6q86 0 150.5 -43.5t64.5 -118.5q0 -62 -47 -100.5t-121 -38.5q-44 0 -84.5 16.5t-95.5 55.5q-69 -51 -69 -172q0 -80 35.5 -142.5t96.5 -100.5t137 -57.5t163 -19.5q122 0 236 38t190 108q123 114 123 297q0 95 -52 202q-80 -14 -115.5 -34t-35.5 -66 q0 -64 61 -109l-117 -96q-73 27 -121 94.5t-48 153.5q0 128 104 199q49 33 118.5 50.5t160.5 29t129 20.5q53 11 79.5 32.5t26.5 61.5q0 47 -35.5 63.5t-93.5 18.5l47 172q91 -2 157 -27t99.5 -65.5t48.5 -83.5t15 -90q0 -63 -25 -114.5t-67 -85.5t-88 -55t-97 -32 q59 -121 59 -260q0 -130 -53 -241.5t-145 -190.5q-111 -95 -266.5 -142.5t-321.5 -47.5q-184 0 -327.5 56.5t-227.5 168t-84 262.5z" />
<glyph unicode="'" horiz-adv-x="507" d="M182 748l183 686h319l-313 -686h-189z" />
<glyph unicode="(" horiz-adv-x="649" d="M94 432q0 159 39.5 310.5t102 271.5t150 230t173.5 189.5t182 147.5l148 -115q-213 -179 -341.5 -366t-182.5 -398q-43 -166 -43 -327q0 -236 124 -580l-194 -43q-158 339 -158 680z" />
<glyph unicode=")" horiz-adv-x="653" d="M-145 -92q226 193 345 368.5t177 395.5q43 162 43 313q0 237 -123 594l195 43q157 -348 157 -682q0 -157 -38.5 -306.5t-100.5 -269t-148.5 -229.5t-174 -191t-185.5 -151z" />
<glyph unicode="*" horiz-adv-x="1132" d="M193 676l331 260l-329 49l88 217l325 -104l62 336h252l-107 -336l365 73l-19 -225l-332 -28l187 -320l-232 -76l-120 293l-297 -301z" />
<glyph unicode="+" horiz-adv-x="1179" d="M96 621l56 200h409l109 408h219l-109 -408h410l-55 -200h-410l-109 -408h-219l109 408h-410z" />
<glyph unicode="," horiz-adv-x="608" d="M-139 -342l219 342h-86l92 344h350l-80 -301l-307 -385h-188z" />
<glyph unicode="-" horiz-adv-x="935" d="M117 571l55 201h723l-55 -201h-723z" />
<glyph unicode="." horiz-adv-x="608" d="M-6 0l92 344h350l-92 -344h-350z" />
<glyph unicode="/" horiz-adv-x="966" d="M-160 -213l1225 1860l145 -56l-1224 -1863z" />
<glyph unicode="0" horiz-adv-x="1191" d="M90 426q0 148 61 289.5t168 230.5q144 119 347 119q202 0 319 -118t117 -333q0 -123 -40 -236.5t-112.5 -201.5t-183 -141t-242.5 -53q-205 0 -319.5 121.5t-114.5 322.5zM326 426q0 -124 53 -192t156 -68q97 0 173 60.5t116 160.5t40 219q0 130 -51 201.5t-151 71.5 q-74 0 -138 -39.5t-106.5 -103.5t-67 -145t-24.5 -165z" />
<glyph unicode="1" horiz-adv-x="940" d="M-18 0l49 180h256l174 623l-322 -166l49 223l424 221h162l-250 -901h281l-51 -180h-772z" />
<glyph unicode="2" horiz-adv-x="1060" d="M-25 0l35 162l508 330q40 26 68 45.5t62.5 49t55.5 55.5t35.5 58.5t14.5 65.5q0 54 -35.5 82.5t-97.5 28.5q-48 0 -102 -18t-95 -52l-64 -227h-190l102 479h185l-11 -62q112 70 256 70q149 0 228.5 -74t79.5 -200q0 -99 -52 -173t-170 -161q-70 -51 -177 -121t-179 -114 l-72 -44h510l-39 -180h-856z" />
<glyph unicode="3" horiz-adv-x="1198" d="M33 336q0 58 12 102l221 51q-8 -41 -8 -100q0 -99 65.5 -158t178.5 -59q139 0 235.5 86.5t96.5 224.5q0 91 -44 164t-112 98l-180 -151l-117 127l569 485h-413l-68 -194h-172l59 377h873l24 -150l-424 -352q113 -51 179.5 -158.5t66.5 -243.5q0 -218 -167 -363t-425 -145 q-211 0 -330.5 98.5t-119.5 260.5z" />
<glyph unicode="4" horiz-adv-x="1181" d="M-66 66l41 186l768 893h267l-785 -899h402l104 389h234l-107 -389h219l-49 -180h-217l-90 -347h-234l91 347h-644z" />
<glyph unicode="5" horiz-adv-x="1206" d="M-109 35q0 37 9 80l221 51q-8 -41 -8 -100q0 -99 67 -158.5t180 -59.5q139 0 233.5 85.5t94.5 224.5q0 115 -65.5 188.5t-178.5 85.5l-49 -139l-186 41l240 670h819l-39 -183h-649l-78 -217q111 -11 196.5 -54.5t134.5 -107t73 -135.5t24 -149q0 -210 -163 -357 t-411 -147q-203 0 -334 102.5t-131 278.5z" />
<glyph unicode="6" horiz-adv-x="1171" d="M68 440q0 152 72 303t184.5 270.5t255.5 224.5t280 175.5t262 112.5l205 -107q-79 -32 -160 -71t-188 -99.5t-200 -125.5t-185 -150.5t-154 -173.5q-127 -180 -127 -357q0 -129 65 -195.5t163 -66.5q38 0 77.5 10t78 32.5t68 55t48 81t18.5 106.5q0 116 -69 174.5 t-191 58.5q-22 0 -34 -2l127 174h28q95 0 169 -31.5t119 -85.5t68 -121t23 -143q0 -74 -20.5 -146t-64.5 -138.5t-105.5 -117t-151 -80.5t-194.5 -30q-118 0 -209 37t-146.5 102t-83.5 147t-28 177z" />
<glyph unicode="7" horiz-adv-x="1103" d="M-20 -301l925 1122h-528l-78 -301h-195l107 594h229l-24 -110h762l-9 -158l-995 -1243z" />
<glyph unicode="8" horiz-adv-x="1169" d="M174 293q0 122 77.5 209.5t205.5 138.5q-93 85 -152 201t-59 248q0 214 150 353.5t384 139.5q130 0 235.5 -44.5t171.5 -138.5t66 -224q0 -82 -27.5 -156t-71 -131t-108.5 -110t-130.5 -91.5t-145.5 -75.5q65 -68 100 -133t35 -149q0 -147 -109 -243.5t-278 -96.5 q-157 0 -250.5 84.5t-93.5 218.5zM395 299q0 -59 36 -93t93 -34q63 0 111.5 41.5t48.5 118.5q0 99 -98 184q-191 -88 -191 -217zM481 1083q0 -201 160 -348q76 36 140.5 78.5t121.5 96t90 118.5t33 133q0 98 -65.5 163t-182.5 65q-60 0 -112.5 -19t-94.5 -55.5t-66 -96 t-24 -135.5z" />
<glyph unicode="9" horiz-adv-x="1130" d="M-186 -375q105 43 214.5 99t236.5 134.5t243 180.5t192 209q127 180 127 354q0 129 -64.5 195.5t-162.5 66.5q-49 0 -98 -16.5t-93 -49.5t-72 -89.5t-28 -128.5q0 -116 69 -175t191 -59q23 0 35 2l-127 -174h-28q-95 0 -169.5 32t-119 86t-67.5 121t-23 142 q0 74 21.5 146.5t66 138.5t107 116.5t152 80.5t193.5 30q116 0 206.5 -37.5t145.5 -102.5t83 -148t28 -179q0 -109 -36.5 -217.5t-99 -202.5t-147.5 -183t-180.5 -162t-199 -135t-202 -107t-190.5 -74z" />
<glyph unicode=":" horiz-adv-x="694" d="M33 0l92 344h350l-92 -344h-350zM213 680l92 344h350l-92 -344h-350z" />
<glyph unicode=";" horiz-adv-x="641" d="M-111 -342l220 342h-86l92 344h350l-80 -301l-309 -385h-187zM205 680l92 344h350l-92 -344h-350z" />
<glyph unicode="&#x3c;" horiz-adv-x="1728" d="M117 684v61l680 639h297l-617 -573h1211v-193h-1211l617 -573h-297z" />
<glyph unicode="=" horiz-adv-x="1007" d="M96 430l54 201h755l-53 -201h-756zM197 809l53 201h756l-54 -201h-755z" />
<glyph unicode="&#x3e;" horiz-adv-x="1724" d="M143 618v193h1213l-617 573h297l678 -639v-61l-678 -639h-297l617 573h-1213z" />
<glyph unicode="?" horiz-adv-x="937" d="M129 0l92 344h350l-92 -344h-350zM203 1008l114 432h158l-4 -72q89 86 236 86q152 0 229.5 -82t77.5 -211q0 -65 -20.5 -122t-55 -101.5t-77.5 -85t-90 -80t-89.5 -78.5t-80.5 -88.5t-58 -101.5h-213q21 79 71 152t105.5 127t108.5 106.5t87.5 111t34.5 119.5t-34.5 98 t-102.5 37q-78 0 -149 -47l-64 -200h-184z" />
<glyph unicode="@" horiz-adv-x="2152" d="M63 354q0 158 43 307t119.5 273.5t186 228t239 175.5t281.5 111.5t311 39.5q132 0 254.5 -26t234 -83t193.5 -140.5t131 -207t49 -272.5q0 -198 -78.5 -367t-211.5 -276q-169 -137 -390 -137q-105 0 -151.5 35.5t-46.5 121.5q0 102 43 215q-112 -184 -237.5 -278 t-246.5 -94q-113 0 -170 77.5t-57 204.5q0 75 20 162.5t56 174t90 167t117 142.5t141.5 99t159.5 37q89 0 161 -44t101 -128l47 152h246q-32 -104 -106 -325t-109 -345t-35 -186q0 -27 8 -35t29 -8q54 0 115.5 29t119.5 85t105.5 129.5t76.5 172.5t29 204q0 118 -37 216 t-101 166t-151 114.5t-186 68t-207 21.5q-196 0 -375 -71.5t-313 -197.5t-213.5 -309t-79.5 -393q0 -146 39 -261.5t105 -191t158.5 -125.5t194 -71.5t216.5 -21.5q189 0 385 54.5t332 143.5l-78 -209q-147 -74 -324.5 -115.5t-347.5 -41.5q-187 0 -347 53.5t-280.5 155.5 t-189 262.5t-68.5 361.5zM803 254q0 -90 53 -90q54 0 149.5 80t180 180t131.5 178q2 18 2 62q0 40 -6.5 74.5t-21.5 67.5t-44 52t-69 19q-63 0 -123 -46.5t-104 -118.5t-78.5 -156.5t-52 -164t-17.5 -137.5z" />
<glyph unicode="A" horiz-adv-x="1421" d="M-145 0l41 172h167l707 1090h-192l59 172h586l-70 -1262h180l-45 -172h-594l45 172h181l22 313h-424l-199 -313h211l-45 -172h-630zM627 666h329l33 583z" />
<glyph unicode="B" horiz-adv-x="1398" d="M-53 0l45 172h213l295 1090h-213l43 172h684q171 0 264.5 -79.5t93.5 -215.5q0 -128 -84 -230t-241 -157q116 -25 182.5 -102.5t66.5 -198.5q0 -190 -158.5 -320.5t-396.5 -130.5h-794zM455 193h307q131 0 214 74t83 177q0 94 -68.5 143.5t-150.5 49.5h-269zM621 821h239 q51 17 95.5 40.5t85 57t64 79.5t23.5 98q0 145 -184 145h-209z" />
<glyph unicode="C" horiz-adv-x="1294" d="M135 522q0 130 30.5 262t92.5 252t145.5 213.5t198.5 149t244 55.5q186 0 254 -115l30 95h179l-113 -488l-197 -8q11 84 11 92q0 34 -1 53t-5 52.5t-15 53t-29 40.5t-48.5 31t-71.5 10q-87 0 -163 -47t-129 -123t-91.5 -171t-57 -191.5t-18.5 -184.5q0 -185 83 -276 t226 -91q73 0 151 23t138 55.5t109 65t76 55.5l26 23l-25 -232q-7 -8 -20.5 -21t-62 -47t-103 -60t-143.5 -47t-185 -21q-256 0 -386 140.5t-130 401.5z" />
<glyph unicode="D" horiz-adv-x="1517" d="M-53 0l45 172h215l295 1090h-215l43 172h669q222 0 358 -134.5t136 -379.5q0 -133 -35 -267q-72 -285 -258 -452q-222 -201 -594 -201h-659zM457 193h164q236 0 390.5 138t209.5 369q28 121 28 224q0 150 -87.5 233t-262.5 84h-168z" />
<glyph unicode="E" horiz-adv-x="1470" d="M-53 0l45 172h213l295 1090h-213l43 172h1200l-113 -396h-182l25 203h-525l-117 -428h240l53 203h197l-154 -576h-196l51 189h-240l-114 -436h616l117 213h180l-123 -406h-1298z" />
<glyph unicode="F" horiz-adv-x="1275" d="M-51 0l45 172h213l291 1090h-213l47 172h1159l-113 -396h-182l21 203h-484l-123 -469h219l54 203h196l-153 -576h-197l49 189h-219l-110 -416h272l-43 -172h-729z" />
<glyph unicode="G" horiz-adv-x="1394" d="M139 532q0 128 30 258.5t91 249.5t144 211.5t198.5 147.5t245.5 55q215 0 266 -135l41 115h178l-112 -488h-201q10 76 10 84q0 35 -3 63t-14 63t-30.5 58.5t-55.5 39.5t-85 16q-85 0 -161 -46t-130 -121.5t-93.5 -171t-59 -196.5t-19.5 -196q0 -102 23.5 -177t65 -116.5 t92 -60.5t112.5 -19q82 0 147 31.5t108 86.5t69.5 118.5t41.5 138.5h-366l47 184h729l-47 -184h-139q-47 -226 -156 -359q-165 -202 -453 -202q-114 0 -206.5 32.5t-162 98t-107.5 172.5t-38 249z" />
<glyph unicode="H" horiz-adv-x="1687" d="M-53 0l45 172h215l291 1090h-215l47 172h669l-47 -172h-213l-116 -443h604l116 443h-215l48 172h671l-47 -172h-215l-291 -1090h215l-45 -172h-671l45 172h215l125 467h-605l-124 -467h213l-46 -172h-669z" />
<glyph unicode="I" horiz-adv-x="841" d="M-53 0l45 172h215l291 1090h-215l47 172h669l-47 -172h-213l-290 -1090h213l-46 -172h-669z" />
<glyph unicode="J" horiz-adv-x="1382" d="M-12 170q0 37 2 55l246 64l-5 -70q0 -144 63.5 -219.5t203.5 -75.5q61 0 109.5 15.5t80.5 39.5t56 62t37.5 74t25.5 84l256 1042h-207q-156 0 -251 -57.5t-95 -171.5q0 -154 190 -154l-71 -168q-163 0 -264 86.5t-101 243.5q0 100 44.5 180.5t120.5 130.5t174 76.5 t210 26.5h723l-47 -172h-176l-271 -1090q-27 -105 -69 -185.5t-106.5 -143.5t-158.5 -96.5t-214 -33.5q-107 0 -197 27.5t-160 81.5t-109.5 143t-39.5 205z" />
<glyph unicode="K" horiz-adv-x="1673" d="M-53 0l45 172h215l291 1090h-215l47 172h628l-47 -172h-172l-127 -474h129l508 474h-211l47 172h648l-47 -172h-154l-617 -547q186 -356 252 -465q50 -82 101.5 -116t128.5 -34q63 0 150 11.5t116 35.5l-59 -213q-93 -49 -232 -49q-50 0 -94.5 8t-80.5 20.5t-70 36 t-58.5 45t-51.5 57.5t-45 63.5t-42 73t-39 76.5t-39.5 83t-40.5 84l-86 172h-160l-116 -432h253l-45 -172h-710z" />
<glyph unicode="L" horiz-adv-x="1296" d="M-51 0l45 172h213l291 1090h-213l47 172h700l-47 -172h-246l-290 -1090h514l104 234h180l-143 -406h-1155z" />
<glyph unicode="M" horiz-adv-x="1890" d="M-86 0l45 172h215l352 1090h-215l47 172h519l81 -822l515 822h565l-47 -172h-213l-271 -1090h213l-45 -172h-669l45 172h215l268 987l-508 -768h-244l-73 764l-308 -983h261l-46 -172h-702z" />
<glyph unicode="N" horiz-adv-x="1599" d="M-53 0l45 172h215l291 1090h-219l47 172h489l264 -1094l242 922h-219l47 172h627l-47 -172h-195l-336 -1262h-240l-278 1171l-246 -999h217l-45 -172h-659z" />
<glyph unicode="O" d="M129 494q0 127 29.5 259.5t92 258t149.5 224t211.5 158.5t267.5 60q212 0 335 -130t123 -392q0 -105 -20.5 -214t-60.5 -216t-104 -201t-144 -166t-188 -113.5t-230 -41.5q-212 0 -336.5 128t-124.5 386zM373 471q0 -141 62.5 -218t180.5 -77q147 0 262.5 127.5 t180.5 388.5q39 153 39 273q0 139 -62.5 215.5t-179.5 76.5q-147 0 -263 -127.5t-181 -388.5q-39 -153 -39 -270z" />
<glyph unicode="P" horiz-adv-x="1325" d="M-53 0l45 172h215l291 1090h-215l47 172h671q110 0 198.5 -43t144 -134.5t55.5 -216.5q0 -220 -164.5 -348.5t-446.5 -128.5h-59l-39 203q12 0 33.5 -1t42.5 -1q180 0 285.5 64.5t105.5 205.5q0 105 -56 156t-138 51h-230l-284 -1069h239l-45 -172h-696z" />
<glyph unicode="Q" d="M-164 -307q0 98 70.5 167.5t197.5 69.5q16 0 32.5 -1.5t28.5 -3t29.5 -6.5t26.5 -7t29.5 -9.5t27.5 -10.5t31 -12.5t31 -12.5l61 143q-272 109 -272 479q0 129 29.5 262.5t92 259.5t149.5 224.5t211.5 158.5t267.5 60q211 0 334.5 -130.5t123.5 -389.5q0 -126 -28.5 -256 t-89 -255t-145.5 -222.5t-207.5 -158t-264.5 -62.5q-15 -37 -43 -104.5t-35 -84.5q26 -10 119.5 -54.5t173.5 -70.5t152 -26q51 0 107.5 14t100.5 34t81 40.5t57 34.5l20 14l-26 -207q-6 -5 -18 -13.5t-51.5 -30.5t-81.5 -39t-105 -30.5t-125 -13.5q-114 0 -218 41.5 t-292 144.5q-58 -81 -144 -122.5t-180 -41.5q-125 0 -191.5 67.5t-66.5 160.5zM41 -301q0 -25 18.5 -43t53.5 -18q75 0 135 73q-103 43 -144 43q-33 0 -48 -16.5t-15 -38.5zM373 471q0 -183 108 -260q30 69 72 196.5t59 172.5l189 -76q-41 -140 -117 -322q124 24 221 152.5 t154 357.5q39 153 39 273q0 139 -62.5 215.5t-179.5 76.5q-147 0 -263 -127.5t-181 -388.5q-39 -153 -39 -270z" />
<glyph unicode="R" horiz-adv-x="1505" d="M-53 0l45 172h215l291 1090h-215l47 172h700q183 0 280 -86.5t97 -241.5q-1 -120 -62.5 -213.5t-159.5 -149t-229 -84.5q109 -44 201 -251l105 -236h206l-45 -172h-342l-170 397q-80 189 -260 189h-92l-110 -414h219l-45 -172h-676zM608 770h166q68 0 135 18.5t124 52.5 t92.5 91t35.5 127q0 89 -52 135.5t-130 46.5h-246z" />
<glyph unicode="S" horiz-adv-x="1206" d="M27 55l102 383h188l-47 -239q35 -15 108.5 -26t131.5 -11q61 0 118 13t107 39t80.5 71.5t30.5 103.5q0 46 -23.5 80.5t-79.5 69.5q-50 31 -159 83t-152 78q-95 57 -143.5 133t-48.5 189q0 107 45.5 191t124.5 136t180.5 78.5t218.5 26.5q109 0 241.5 -20t209.5 -56 l-113 -377h-182l47 246q-94 21 -207 21q-56 0 -107.5 -10.5t-101 -34t-79.5 -68.5t-30 -106q0 -49 20.5 -82t65.5 -66q39 -28 101.5 -60.5t116 -57t112.5 -61.5t100 -76.5t68 -100.5t27 -135q0 -136 -83.5 -237.5t-220.5 -151.5t-307 -50q-108 0 -223 21t-176 42z" />
<glyph unicode="T" horiz-adv-x="1386" d="M166 983l131 451h1302l-147 -451h-182l41 258h-295l-285 -1069h234l-45 -172h-709l45 172h233l285 1069h-293l-133 -258h-182z" />
<glyph unicode="U" horiz-adv-x="1630" d="M223 354q0 80 27 185l192 723h-192l47 172h649l-47 -172h-215l-192 -725q-25 -98 -25 -156q0 -111 67.5 -161t202.5 -50q77 0 138 16.5t117.5 56t99.5 113t71 181.5l193 725h-234l47 172h648l-48 -172h-194l-195 -748q-68 -261 -200 -387q-155 -147 -451 -147 q-84 0 -155 10.5t-137.5 37t-112.5 68t-73.5 107.5t-27.5 151z" />
<glyph unicode="V" horiz-adv-x="1413" d="M186 1262l47 172h611l-47 -172h-183l17 -1063l571 1063h-203l48 172h624l-47 -172h-188l-699 -1262h-317l-45 1262h-189z" />
<glyph unicode="W" horiz-adv-x="2240" d="M186 1262l47 172h605l-47 -172h-183l23 -1063l569 1063h-180l47 172h598l-47 -172h-193l33 -1063l572 1063h-203l47 172h625l-48 -172h-188l-696 -1262h-318l-20 936l-486 -936h-323l-45 1262h-189z" />
<glyph unicode="X" horiz-adv-x="1546" d="M-96 0l47 180h203l530 551l-229 531h-215l47 172h649l-47 -172h-164l162 -383l350 383h-176l47 172h641l-47 -172h-209l-530 -553l233 -529h217l-47 -180h-643l47 180h158l-168 379l-344 -379h170l-47 -180h-635z" />
<glyph unicode="Y" horiz-adv-x="1402" d="M188 1262l48 172h632l-47 -172h-203l150 -543l428 543h-186l47 172h602l-47 -172h-178l-594 -723l-97 -359h215l-47 -180h-669l47 180h213l96 359l-219 723h-191z" />
<glyph unicode="Z" horiz-adv-x="1382" d="M-47 0l55 193l1137 1048h-600l-94 -258h-183l86 451h1141l-35 -193l-1134 -1048h630l113 258h199l-121 -451h-1194z" />
<glyph unicode="[" horiz-adv-x="757" d="M-27 -211l480 1794h579l-51 -190h-346l-379 -1413h346l-51 -191h-578z" />
<glyph unicode="\" horiz-adv-x="958" d="M248 1624l164 31l415 -1917l-168 -23z" />
<glyph unicode="]" horiz-adv-x="757" d="M-182 -211l51 191h342l379 1413h-344l51 190h577l-481 -1794h-575z" />
<glyph unicode="^" horiz-adv-x="1079" d="M102 485l590 949h271l116 -949h-243l-54 713l-415 -713h-265z" />
<glyph unicode="_" horiz-adv-x="733" d="M-205 -313l45 182h703l-47 -182h-701z" />
<glyph unicode="`" horiz-adv-x="722" d="M207 1487l213 123l457 -385l-146 -95z" />
<glyph unicode="a" horiz-adv-x="1236" d="M35 262q0 91 28 197t81 209t123 187.5t162 136.5t189 52q89 0 161.5 -44t101.5 -128l47 152h246q-22 -64 -56.5 -165.5t-100.5 -319t-85 -322.5l264 121l-49 -199q-27 -18 -70 -44.5t-140 -70.5t-153 -44q-48 0 -75 29.5t-27 78.5q0 41 18.5 118t44.5 146 q-112 -184 -237 -278t-246 -94q-113 0 -170 77.5t-57 204.5zM279 254q0 -90 53 -90q54 0 149.5 80t180 180t131.5 178q2 18 2 62q0 39 -6.5 74t-21.5 68t-44.5 52t-69.5 19q-63 0 -123 -46.5t-104 -118.5t-78 -156.5t-51.5 -164t-17.5 -137.5z" />
<glyph unicode="b" horiz-adv-x="1140" d="M98 313q0 61 19 164.5t37 176.5t59 229l113 432h-174l41 160h421q-188 -621 -231 -809q112 183 239.5 280.5t251.5 97.5q114 0 170 -79.5t56 -212.5q0 -98 -29.5 -205t-87.5 -207.5t-135.5 -181t-183.5 -129.5t-222 -49q-166 0 -255 93t-89 240zM324 303q0 -68 36 -114 t105 -46q83 0 159.5 71t125 172.5t77.5 205.5t29 178q0 90 -51 90q-55 0 -152.5 -83t-189 -201.5t-135.5 -219.5q-4 -36 -4 -53z" />
<glyph unicode="c" horiz-adv-x="972" d="M61 373q0 168 75.5 324.5t199 251.5t256.5 95q125 0 180 -79l55 79h156l-109 -403h-167q2 24 4 49t3 38.5t1 23.5q0 61 -33.5 90.5t-79.5 29.5q-50 0 -104 -37t-99 -98t-74.5 -147.5t-29.5 -177.5q0 -240 211 -240q55 0 116 15.5t109.5 37.5t89 44t62.5 37l22 16 l-53 -226q-7 -5 -20 -12.5t-54.5 -27.5t-85 -35.5t-108.5 -28t-129 -12.5q-180 0 -287 98.5t-107 294.5z" />
<glyph unicode="d" horiz-adv-x="1261" d="M35 262q0 91 28 197t81 209t123 187.5t162 136.5t189 52q89 0 161.5 -44t101.5 -128l129 443h-191l37 160h451q-37 -115 -93.5 -291t-159.5 -519t-122 -448l264 121l-49 -199q-27 -18 -70 -44.5t-140 -70.5t-153 -44q-48 0 -75 29.5t-27 78.5q0 41 18.5 118t44.5 146 q-112 -184 -237 -278t-246 -94q-113 0 -170 77.5t-57 204.5zM279 254q0 -90 53 -90q54 0 149.5 80t180 180t131.5 178q2 18 2 62q0 39 -6.5 74t-21.5 68t-44.5 52t-69.5 19q-63 0 -123 -46.5t-104 -118.5t-78 -156.5t-51.5 -164t-17.5 -137.5z" />
<glyph unicode="e" horiz-adv-x="1017" d="M57 354q0 94 29 201q63 231 224 360t360 129q135 0 222 -64t87 -196q0 -13 -1.5 -25.5t-10.5 -41.5t-26 -54t-52.5 -56.5t-83.5 -55.5q-160 -82 -436 -82h-64q-8 -33 -8 -61q0 -120 54.5 -178t154.5 -58q52 0 112 15.5t108 37.5t89 44t63 37l23 16l-53 -226 q-7 -5 -20 -12.5t-54.5 -27.5t-85.5 -35.5t-108.5 -28t-126.5 -12.5q-183 0 -289.5 98t-106.5 276zM369 637q132 0 239 29q78 22 115 57t37 74q0 36 -29 54.5t-74 18.5q-86 0 -166 -63.5t-122 -169.5z" />
<glyph unicode="f" horiz-adv-x="722" d="M-332 -360l119 186q2 -4 6 -10.5t19 -23.5t32.5 -30t47 -23.5t61.5 -10.5q34 0 59.5 12t40.5 27.5t27.5 46t17.5 51.5t13 59l186 920h-191l35 180h193l45 199q38 171 131 253.5t248 82.5q55 0 107.5 -10t88.5 -24.5t64 -28.5t42 -24l13 -10l-100 -207q-3 4 -8.5 10.5 t-24.5 23t-39.5 29.5t-53 23.5t-65.5 10.5q-44 0 -77 -17t-52.5 -48t-29.5 -58t-17 -62l-31 -143h259l-46 -180h-251l-193 -973q-34 -169 -124.5 -259.5t-256.5 -90.5q-60 0 -112.5 12.5t-84.5 30t-55.5 34.5t-32.5 30z" />
<glyph unicode="g" horiz-adv-x="1097" d="M-63 -319q0 42 17 77t41 55.5t47.5 35t40.5 19.5l17 5l140 -61q-4 0 -17 -9t-27 -31.5t-14 -50.5q0 -64 70.5 -100.5t218.5 -36.5q283 0 283 140q0 39 -38 66.5t-98.5 44t-133.5 30.5t-146 32t-133.5 43t-98.5 70t-38 107q0 42 17 84t65.5 84.5t121.5 62.5 q-68 37 -108.5 114.5t-40.5 170.5q0 61 14.5 118t48 111t82.5 94t124 64t167 24q130 0 234 -51l325 156l94 -191l-272 -112q41 -80 41 -176q0 -76 -26.5 -147.5t-78.5 -133.5t-141 -99.5t-203 -37.5q-87 0 -174 31q-21 -8 -41 -37.5t-20 -55.5q0 -34 39 -57.5t101.5 -37 t138 -27t151.5 -35t138.5 -53.5t101.5 -89.5t39 -136.5q0 -55 -18.5 -105.5t-60.5 -96t-104 -79t-155 -53.5t-207 -20q-236 0 -380 78t-144 203zM354 625q0 -85 52 -135t131 -50q54 0 95.5 20t65 54t35.5 74.5t12 85.5q0 89 -54.5 136.5t-129.5 47.5q-103 0 -155 -68.5 t-52 -164.5z" />
<glyph unicode="h" horiz-adv-x="1230" d="M12 0l355 1315h-174l40 160h424q-85 -272 -237 -797q46 72 95 132.5t108.5 115.5t126.5 86.5t133 31.5q94 0 149 -59.5t55 -140.5q0 -65 -39.5 -222t-78.5 -281l-39 -124l268 121l-49 -199q-27 -18 -69.5 -44.5t-138.5 -70.5t-150 -44q-48 0 -81.5 29.5t-33.5 74.5 q0 60 91 359t91 345q0 41 -41 41q-45 0 -116.5 -51t-138.5 -122t-122 -140t-78 -110l-108 -406h-242z" />
<glyph unicode="i" horiz-adv-x="679" d="M102 864l41 160h475q-22 -64 -56 -165.5t-100 -319t-85 -322.5l264 121l-49 -199q-28 -18 -72 -44.5t-142.5 -70.5t-152.5 -44q-47 0 -80.5 29t-33.5 75q0 56 51.5 251t103.5 362l51 167h-215zM395 1194l84 281h273l-84 -281h-273z" />
<glyph unicode="j" horiz-adv-x="634" d="M-287 -182q112 -64 205 -64q36 0 64.5 14.5t48 36.5t37 62.5t29 79t26.5 98.5l205 819h-224l41 160h476q-39 -115 -164 -609.5t-142 -549.5q-19 -63 -45.5 -113t-69.5 -99t-110 -76.5t-153 -27.5q-133 0 -218 58zM393 1194l84 281h273l-84 -281h-273z" />
<glyph unicode="k" horiz-adv-x="1202" d="M12 0l355 1315h-177l39 160h439l-279 -883q53 78 110.5 146.5t134 140.5t164.5 114.5t173 42.5q102 0 158.5 -58.5t56.5 -141.5q0 -74 -44 -140t-124 -92l-109 101q66 23 66 71q0 43 -53 43q-103 0 -240 -155l49 -224q32 -142 66 -196t86 -54q39 0 89 24t80 48l31 23 l-6 -185q-5 -5 -14 -12.5t-38.5 -26.5t-61.5 -34t-81 -27t-98 -12q-53 0 -96.5 21t-79.5 83q-73 124 -110 397l-156 -190l-88 -299h-242z" />
<glyph unicode="l" horiz-adv-x="602" d="M53 80q0 59 75 368t150 588l76 279h-174l41 160h434q-293 -1022 -336 -1258l265 121l-49 -199q-28 -18 -72 -44.5t-142.5 -70.5t-152.5 -44q-47 0 -81 29.5t-34 70.5z" />
<glyph unicode="m" horiz-adv-x="1853" d="M55 0l236 864h-158l41 160h399q-55 -170 -114 -346q38 59 72.5 106t80 98t89.5 84.5t97.5 55.5t106.5 22q89 0 140 -55t51 -149q0 -51 -21 -133q112 160 218 248.5t216 88.5q92 0 147.5 -59t55.5 -139q0 -65 -39.5 -222.5t-78.5 -281.5l-40 -125l269 121l-49 -199 q-10 -6 -26.5 -17t-64 -38.5t-90.5 -48.5t-93.5 -38t-84.5 -17q-48 0 -81.5 29.5t-33.5 74.5q0 60 91.5 359t91.5 345q0 41 -41 41q-45 0 -109.5 -46t-125 -112.5t-110 -131t-75.5 -109.5l-119 -430h-241q82 273 131 449q84 293 84 344q0 36 -43 36q-44 0 -110.5 -50 t-128.5 -120.5t-113 -139t-76 -113.5l-109 -406h-242z" />
<glyph unicode="n" horiz-adv-x="1273" d="M55 0l236 864h-158l41 160h399q-55 -170 -114 -346q46 72 96 132.5t110 115.5t127.5 86.5t133.5 31.5q94 0 149 -59.5t55 -140.5q0 -65 -39 -222t-79 -281l-39 -124l268 121l-49 -199q-27 -18 -69.5 -44.5t-138.5 -70.5t-150 -44q-48 0 -81.5 29.5t-33.5 74.5 q0 60 91 359t91 345q0 41 -41 41q-59 0 -160 -85.5t-181.5 -182.5t-112.5 -155l-109 -406h-242z" />
<glyph unicode="o" horiz-adv-x="1099" d="M61 365q0 119 42 248t126 233q160 198 420 198q184 0 285.5 -95.5t101.5 -282.5q0 -74 -16.5 -152t-48.5 -155t-83 -145t-115.5 -120.5t-151 -83t-183.5 -30.5q-175 0 -276 98t-101 287zM293 369q0 -203 172 -203q66 0 123.5 32.5t97 84t67.5 115.5t41 127.5t13 119.5 q0 60 -15 102.5t-41 64.5t-55.5 32t-64.5 10q-81 0 -148.5 -49.5t-107 -125t-61 -156.5t-21.5 -154z" />
<glyph unicode="p" horiz-adv-x="1210" d="M-213 -430l45 180h156l303 1114h-158l41 160h399q-57 -182 -116 -358q112 184 237 281t248 97q114 0 169.5 -78.5t55.5 -211.5q0 -98 -28.5 -205.5t-84.5 -208t-130 -181.5t-173.5 -130t-207.5 -49q-53 0 -95.5 11.5t-66 28.5t-40 34t-21.5 28l-5 12l-90 -344h236 l-45 -180h-629zM391 303q0 -66 34 -113t105 -47q68 0 132 47t110 119.5t81.5 157.5t53 165t17.5 138q0 90 -52 90q-55 0 -152.5 -83t-189 -201.5t-135.5 -219.5q-4 -36 -4 -53z" />
<glyph unicode="q" horiz-adv-x="1177" d="M35 262q0 91 28 197t81 209t123 187.5t162 136.5t189 52q89 0 161.5 -44t101.5 -128l45 152h231l-330 -1274h174l-45 -180h-632l45 180h217l159 602q-112 -184 -237 -278t-246 -94q-113 0 -170 77.5t-57 204.5zM279 254q0 -90 53 -90q54 0 149.5 80t180 180t131.5 178 q2 18 2 62q0 39 -6.5 74t-21.5 68t-44.5 52t-69.5 19q-63 0 -123 -46.5t-104 -118.5t-78 -156.5t-51.5 -164t-17.5 -137.5z" />
<glyph unicode="r" horiz-adv-x="878" d="M55 0l236 864h-158l41 160h397q-49 -137 -112 -346q111 166 169 230q123 133 238 134q56 0 113 -28l-74 -223q-23 10 -53 10q-37 0 -75.5 -15.5t-76.5 -46t-70.5 -61t-69 -76.5t-59.5 -76t-55 -75.5t-43 -59.5l-104 -391h-244z" />
<glyph unicode="s" horiz-adv-x="952" d="M31 27l61 335h187l-17 -192q62 -18 150 -18q142 0 190 63q23 33 23 61q0 52 -62 82q-17 9 -104 42t-140 59q-44 21 -75.5 43t-61 54.5t-44.5 77t-15 99.5q0 152 115.5 231.5t316.5 79.5q169 0 356 -55l-55 -305h-182l14 164q-68 14 -149 14q-172 0 -172 -106 q0 -36 18.5 -60t58.5 -45q30 -16 81.5 -34.5t94.5 -33t91.5 -40t82 -54t56 -76t22.5 -106.5q0 -148 -124 -242t-347 -94q-84 0 -176.5 14t-142.5 28z" />
<glyph unicode="t" horiz-adv-x="868" d="M94 844l49 180h211l97 319h247l-100 -319h301l-76 -180h-276q-144 -506 -144 -602q0 -58 70 -58q114 0 328 133l-49 -219q-7 -5 -18.5 -13t-49.5 -28t-76.5 -35.5t-94 -28.5t-107.5 -13q-40 0 -77.5 7.5t-80 26.5t-68.5 61t-26 103q0 73 37 239.5t75 296.5l37 130h-209z " />
<glyph unicode="u" horiz-adv-x="1257" d="M102 176q0 68 45 240t89 310l45 138h-158l41 160h403q-10 -28 -25.5 -75t-56 -172t-71.5 -225t-56.5 -195.5t-25.5 -123.5q0 -38 43 -38q58 0 157.5 84t180 181t114.5 158l68 246h-174l41 160h405q-50 -156 -106 -359.5t-87 -328.5l-30 -125l270 127l-49 -199l-25.5 -17 t-63 -38.5t-88.5 -48.5t-92.5 -38t-84.5 -17q-48 0 -73 29t-25 75q0 68 61 262q-43 -68 -91.5 -127.5t-108.5 -116t-129.5 -89.5t-137.5 -33q-95 0 -150 59.5t-55 136.5z" />
<glyph unicode="v" horiz-adv-x="1142" d="M72 825l24 172l465 52l47 -17q-227 -554 -227 -862q53 0 121.5 37.5t141 113.5t133 176t99.5 239t39 288h250q-3 -183 -65.5 -363.5t-171.5 -328.5q-117 -158 -270 -255t-298 -97q-104 0 -151 58.5t-47 190.5q0 117 34 273.5t68 253.5l33 98z" />
<glyph unicode="w" horiz-adv-x="1771" d="M72 825l24 172l465 52l47 -17q-227 -554 -227 -864q70 0 182 78t195 194q-4 54 -4 105q0 221 70.5 353t189.5 132q78 0 119 -55.5t41 -140.5q0 -101 -56 -220t-139 -198q0 -139 29.5 -193.5t89.5 -54.5q103 0 204 125t164.5 325.5t63.5 405.5h250q0 -112 -24.5 -234 t-68.5 -237.5t-108.5 -219.5t-140.5 -182.5t-170 -124.5t-191 -46q-53 0 -97 13.5t-72.5 35.5t-50 48.5t-32.5 53.5t-18 49t-9 36l-1 13q-8 -10 -23 -27t-62.5 -60t-96.5 -75.5t-120 -59.5t-139 -27q-101 0 -147.5 60t-46.5 191q0 116 34 272t68 253l33 98z" />
<glyph unicode="x" horiz-adv-x="1183" d="M-45 70l479 465l-151 329h-170l41 160h315l131 -328l322 340l288 -16l-516 -520q73 -165 125 -242q28 -40 48.5 -54t45.5 -14q43 0 94 24t81 48l30 23l-6 -185q-6 -5 -16 -12.5t-41.5 -26.5t-64 -34t-78 -27t-87.5 -12q-58 0 -104.5 27.5t-91.5 97.5q-52 80 -107 233 l-366 -389z" />
<glyph unicode="y" horiz-adv-x="1085" d="M-246 -397l41 209q13 -6 36.5 -15.5t93 -25t136.5 -15.5q87 0 153 26t112 72t88 119l-203 891h-219l41 160h395l164 -836q55 122 122.5 357.5t110.5 453.5l267 48q-10 -35 -39 -139.5t-44 -157t-47 -155.5t-55.5 -168t-61 -158t-72 -161t-80 -143.5t-93.5 -136.5 q-109 -139 -237.5 -209t-294.5 -70q-75 0 -153.5 13.5t-119.5 27.5z" />
<glyph unicode="z" horiz-adv-x="1040" d="M-31 104l678 648q-117 69 -211 69q-151 0 -151 -207l-179 50q0 26 0.5 45t6.5 61.5t16 74.5t32 72t52 65.5t78 43.5t108 18q59 0 119.5 -16t105.5 -39t81.5 -45.5t55.5 -38.5l19 -16l135 141l166 -127l-655 -631q18 -10 47 -24t99 -38t116 -24q61 0 95.5 40t43.5 126 l174 -30q0 -12 -0.5 -25.5t-7 -50t-17.5 -67.5t-35.5 -69.5t-57.5 -65.5t-86.5 -45.5t-120.5 -18.5q-61 0 -124 15t-108.5 37t-82 43.5t-55.5 36.5l-19 15l-160 -156z" />
<glyph unicode="{" horiz-adv-x="778" d="M37 -209l190 711q15 64 2 94.5t-49 30.5h-127l49 182h119q55 0 79 26t44 97l174 649h537l-49 -180h-301l-121 -451q-25 -89 -79.5 -151t-137.5 -80q74 -18 97 -83t-3 -149l-139 -516h301l-50 -180h-536z" />
<glyph unicode="|" horiz-adv-x="526" d="M-43 -272l524 1970h193l-527 -1970h-190z" />
<glyph unicode="}" horiz-adv-x="780" d="M-184 -209l49 180h297l139 516q24 89 80 151.5t139 80.5q-74 18 -98 82.5t2 148.5l121 451h-299l49 180h536l-174 -649q-20 -68 -8.5 -95.5t66.5 -27.5h119l-50 -182h-127q-36 0 -68 -32t-48 -93l-191 -711h-534z" />
<glyph unicode="~" horiz-adv-x="1226" d="M125 532q9 76 34 136t57 95t72 58t75 31t69 8q65 0 162 -32t181 -63.5t118 -31.5q36 0 54.5 26.5t33.5 76.5l6 18h213q-70 -328 -289 -328q-67 0 -160.5 32t-175.5 63.5t-122 31.5q-37 0 -69 -26.5t-40 -94.5h-219z" />
<glyph unicode="&#xa1;" horiz-adv-x="634" d="M-98 -410l338 951h176l-170 -951h-344zM186 680l93 344h348l-92 -344h-349z" />
<glyph unicode="&#xa2;" horiz-adv-x="1026" d="M57 371q0 170 75.5 326.5t198.5 251.5t255 95q17 0 45 -4l71 269h113l-84 -308q23 -16 37 -36l55 79h156l-109 -403h-168q9 115 9 121q0 40 -25 72l-176 -662q82 1 179.5 38.5t154.5 74.5l57 37l-53 -226q-7 -4 -19 -11.5t-52 -27t-82.5 -34.5t-107 -28t-128.5 -15 l-80 -297h-111l82 307q-293 59 -293 381zM291 403q0 -89 26.5 -137.5t85.5 -75.5l183 682q-68 -6 -135.5 -69.5t-113.5 -171.5t-46 -228z" />
<glyph unicode="&#xa3;" horiz-adv-x="1468" d="M16 109q0 83 54 126.5t127 43.5q39 0 104 -21q47 47 94 186h-215v201h295q19 52 27 82l14 51h-336v199h393q28 131 70 229t106 176t158 118t217 40q110 0 212.5 -43.5t172.5 -122.5l-153 -192q-36 61 -97.5 96t-134.5 35q-128 0 -202 -117q-41 -62 -93 -219h320v-199 h-381l-51 -133h432v-201h-512q-62 -131 -170 -225q130 -31 284.5 -58.5t213.5 -27.5q68 0 113 42t57 149l192 -86q-64 -349 -362 -349q-125 0 -295.5 58t-304.5 123q-39 -51 -93 -80t-94 -29q-82 0 -122 44t-40 104z" />
<glyph unicode="&#xa4;" horiz-adv-x="1613" d="M236 242l233 223q-78 114 -78 254t78 254l-233 223l141 150l248 -236q102 51 235 51q132 0 234 -51l247 236l144 -150l-236 -223q78 -114 78 -254t-78 -254l236 -223l-144 -150l-247 236q-104 -52 -234 -52q-131 0 -235 52l-248 -236zM625 719q0 -127 65 -190.5 t170 -63.5q103 0 168.5 63.5t65.5 190.5t-65.5 190.5t-168.5 63.5q-105 0 -170 -63.5t-65 -190.5z" />
<glyph unicode="&#xa5;" horiz-adv-x="1558" d="M197 483l43 162h397l-47 148h-311l45 161h217l-90 308h-191l47 172h633l-47 -172h-215l153 -547l420 547h-170l47 172h603l-48 -172h-178l-250 -308h211l-45 -161h-301l-121 -148h383l-43 -162h-444l-82 -311h215l-45 -172h-670l45 172h213l82 311h-456z" />
<glyph unicode="&#xa6;" horiz-adv-x="534" d="M-39 -272l236 888h192l-237 -888h-191zM254 834l231 864h193l-232 -864h-192z" />
<glyph unicode="&#xa7;" horiz-adv-x="1310" d="M100 -100l93 327h174l-39 -182q54 -14 147 -14q59 0 112 16t90.5 52t37.5 85q0 40 -25.5 71.5t-67.5 51.5t-96 40.5t-110 37.5t-110 44t-96 58t-67.5 81t-25.5 112q0 117 85.5 214t252.5 142q6 -7 17 -18.5t51.5 -37.5t86.5 -42q-70 -21 -122 -48.5t-77.5 -50.5 t-40 -48.5t-17.5 -39t-3 -26.5q0 -37 28.5 -66.5t79.5 -51.5t105 -40.5t121 -43t111 -48.5q159 -86 159 -250q0 -91 -43.5 -164t-117.5 -119t-168.5 -70t-200.5 -24q-186 0 -324 52zM479 1309q0 117 73.5 202t187.5 124.5t251 39.5q81 0 179 -13.5t165 -39.5l-92 -326h-176 l41 185q-50 12 -141 12q-101 0 -170.5 -44t-69.5 -114q0 -45 31 -78t85.5 -54t112.5 -38t128 -41t116 -51q129 -75 129 -209q0 -51 -18 -102.5t-56 -103.5t-108 -98t-164 -77q-9 9 -25 23.5t-60.5 41t-84.5 32.5q88 25 147.5 59t84.5 68t33.5 57t8.5 45q0 43 -33.5 74 t-87 51.5t-118.5 39t-130 44.5t-118.5 60.5t-87 93.5t-33.5 137z" />
<glyph unicode="&#xa8;" horiz-adv-x="911" d="M281 1151l75 283h262l-75 -283h-262zM694 1151l76 283h264l-76 -283h-264z" />
<glyph unicode="&#xa9;" horiz-adv-x="1736" d="M162 717q0 150 39.5 276t109.5 215.5t165.5 151.5t207 91.5t234.5 29.5t235 -29.5t208.5 -91.5t167 -151.5t110.5 -215.5t40 -276q0 -186 -61.5 -334.5t-167.5 -240.5t-241.5 -140.5t-290.5 -48.5q-123 0 -234.5 30t-207 92t-165.5 151.5t-109.5 215t-39.5 275.5z M311 717q0 -156 47.5 -279.5t130.5 -200.5t192 -117t237 -40t237.5 40t193 117t131.5 200.5t48 279.5t-48 279.5t-131.5 200.5t-193 117t-237.5 40t-237 -40t-192 -117t-130.5 -200.5t-47.5 -279.5zM500 725q0 213 105.5 331t266.5 118q69 0 122.5 -21.5t78.5 -58.5l29 80 h125v-336h-146q-40 182 -184 182q-93 0 -146 -72.5t-53 -206.5q0 -158 71.5 -226.5t188.5 -68.5q156 0 304 95l-9 -170q-6 -4 -16.5 -10t-44.5 -22t-71 -28t-92.5 -22t-110.5 -10q-193 0 -305.5 114.5t-112.5 331.5z" />
<glyph unicode="&#xaa;" horiz-adv-x="1095" d="M182 834q0 72 22.5 156t65 165.5t98.5 148.5t129 108.5t150 41.5q70 0 127.5 -35t81.5 -102l37 121h217q-149 -433 -182 -621l188 96l-49 -178q-21 -14 -55 -35t-111 -56.5t-121 -35.5q-39 0 -60.5 24t-21.5 62q0 74 50 211q-90 -152 -191 -224.5t-195 -72.5 q-89 0 -134.5 62t-45.5 164zM397 846q0 -62 37 -62q56 0 166 111t166 203v41q0 153 -100 153q-55 0 -107 -50t-86.5 -121.5t-55 -146t-20.5 -128.5z" />
<glyph unicode="&#xab;" horiz-adv-x="1171" d="M25 496l12 45l471 483h291l-508 -547l194 -477h-229zM492 496l12 45l471 483h291l-508 -547l194 -477h-229z" />
<glyph unicode="&#xac;" horiz-adv-x="1071" d="M113 571l53 201h846l-121 -453h-219l67 252h-626z" />
<glyph unicode="&#xad;" horiz-adv-x="935" d="M117 571l55 201h723l-55 -201h-723z" />
<glyph unicode="&#xae;" horiz-adv-x="1736" d="M162 717q0 150 39.5 276t109.5 215.5t165.5 151.5t207 91.5t234.5 29.5t235 -29.5t208.5 -91.5t167 -151.5t110.5 -215.5t40 -276q0 -186 -61.5 -334.5t-167.5 -240.5t-241.5 -140.5t-290.5 -48.5q-123 0 -234.5 30t-207 92t-165.5 151.5t-109.5 215t-39.5 275.5z M311 717q0 -156 47.5 -279.5t130.5 -200.5t192 -117t237 -40q102 0 192 25t166.5 76.5t131 126t85.5 179t31 230.5t-31 230.5t-85.5 179t-131 126t-166.5 76.5t-192 25q-128 0 -237 -40t-192 -117t-130.5 -200.5t-47.5 -279.5zM512 297v137h88v600h-88v133h459 q141 0 222 -60.5t81 -172.5q0 -39 -10.5 -73.5t-34 -66t-66.5 -54t-102 -31.5q36 -12 65 -40.5t45 -54.5l115 -180h76v-137h-219l-133 248q-19 35 -30.5 51.5t-32.5 34.5t-51 24.5t-75 6.5h-28v-228h110v-137h-391zM793 797h127q159 0 159 123q0 64 -40 89t-115 25h-131 v-237z" />
<glyph unicode="&#xaf;" horiz-adv-x="720" d="M201 1167l47 183h686l-47 -183h-686z" />
<glyph unicode="&#xb0;" horiz-adv-x="856" d="M227 1098q0 164 94 250t250 86q155 0 248.5 -86t93.5 -250t-93.5 -250t-248.5 -86q-156 0 -250 86t-94 250zM422 1098q0 -94 39.5 -140.5t109.5 -46.5q71 0 112.5 47t41.5 140t-41.5 139.5t-112.5 46.5q-70 0 -109.5 -46t-39.5 -140z" />
<glyph unicode="&#xb1;" horiz-adv-x="1222" d="M-39 0l51 201h1035l-54 -201h-1032zM160 748l53 200h405l109 408h219l-108 -408h409l-53 -200h-410l-110 -408h-219l110 408h-405z" />
<glyph unicode="&#xb2;" horiz-adv-x="776" d="M147 686l33 119l264 194q139 103 188.5 153.5t49.5 98.5q0 66 -82 66q-63 0 -127 -31l-57 -153h-131l84 313h120l-4 -45q92 53 181 53t142.5 -45.5t53.5 -132.5q0 -83 -59 -148t-230 -188l-159 -115h334l-39 -139h-562z" />
<glyph unicode="&#xb3;" horiz-adv-x="733" d="M150 649l22 142q101 -7 119 -7q33 0 66 3t75.5 12t74 24t53.5 42t22 63q0 90 -123 90q-45 0 -121 -12l29 108l278 182h-352l37 138h530l-35 -129l-258 -168q73 0 130 -57t57 -142q0 -69 -41 -131.5t-115 -101.5q-121 -62 -352 -62z" />
<glyph unicode="&#xb4;" horiz-adv-x="722" d="M207 1225l457 385l213 -123l-525 -357z" />
<glyph unicode="&#xb5;" horiz-adv-x="1396" d="M-35 -430q4 23 13 64.5t42.5 177t73.5 278t108.5 355t145.5 419.5h-164l41 160h404q-10 -28 -25.5 -75t-56.5 -172t-72 -225t-56.5 -195.5t-25.5 -123.5q0 -38 43 -38q44 0 114.5 50t137 120t122 139.5t79.5 113.5l67 246h-174l41 160h406q-50 -156 -106 -359.5 t-87 -328.5l-30 -125l270 127l-49 -199q-26 -18 -68 -44.5t-137 -70.5t-150 -44q-48 0 -73 29t-25 75q0 64 62 262q-44 -69 -94.5 -130.5t-110.5 -116t-127 -87t-129 -32.5q-60 0 -109 22l-98 -432h-203z" />
<glyph unicode="&#xb6;" horiz-adv-x="1570" d="M18 -270q0 37 2 55l246 63l-4 -69q0 -144 63 -219.5t203 -75.5q61 0 109.5 15.5t80.5 39.5t56.5 61.5t38 73.5t25.5 84l59 242h-147q-130 0 -241 39t-194.5 113t-130.5 190t-47 262q0 165 59.5 315.5t165.5 264.5t264.5 182t344.5 68h768l-47 -172h-215l-291 -1090h215 l-45 -172h-217l-66 -268q-113 -459 -549 -459q-107 0 -197 27.5t-160 81.5t-109.5 143t-39.5 205zM385 633q0 -218 110.5 -329t309.5 -111h133l287 1048h-217q-94 0 -183 -23t-169 -72t-140 -119t-95.5 -171.5t-35.5 -222.5z" />
<glyph unicode="&#xb7;" horiz-adv-x="624" d="M141 553l92 344h353l-92 -344h-353z" />
<glyph unicode="&#xb8;" horiz-adv-x="757" d="M27 -535l14 162q12 -7 33 -17t80 -27t110 -17q115 0 115 69q0 105 -273 105l170 285h162l-86 -154q105 -7 168.5 -72t63.5 -159q0 -111 -87.5 -173.5t-224.5 -62.5q-79 0 -145 19t-100 42z" />
<glyph unicode="&#xb9;" horiz-adv-x="739" d="M156 686l37 139h194l119 447l-225 -80l41 151l288 103h99l-166 -621h186l-37 -139h-536z" />
<glyph unicode="&#xba;" horiz-adv-x="905" d="M195 909q0 109 45.5 225t124.5 195q125 125 303 125q138 0 221.5 -75.5t83.5 -221.5q0 -112 -49 -233.5t-136 -202.5q-120 -113 -290 -113q-143 0 -223 78t-80 223zM403 920q0 -138 109 -138q76 0 137 61t90 141.5t29 156.5q0 135 -113 135q-75 0 -134.5 -57.5 t-88.5 -138t-29 -160.5z" />
<glyph unicode="&#xbb;" horiz-adv-x="1175" d="M-98 0l508 526l-195 498h229l232 -516l-12 -45l-471 -463h-291zM369 0l508 526l-195 498h229l232 -516l-13 -45l-471 -463h-290z" />
<glyph unicode="&#xbc;" horiz-adv-x="1921" d="M129 61l1839 1469l74 -90l-1831 -1469zM141 686l37 139h195l121 447l-228 -80l41 151l287 103h98l-166 -621h189l-37 -139h-537zM1110 174l35 133l399 467h170l-397 -463h192l47 172h154l-47 -172h135l-37 -137h-135l-47 -174h-154l48 174h-363z" />
<glyph unicode="&#xbd;" horiz-adv-x="1964" d="M119 61l1839 1469l74 -90l-1831 -1469zM131 686l37 139h194l121 447l-227 -80l41 151l287 103h98l-166 -621h189l-37 -139h-537zM1188 0l33 119l264 194q139 102 188 153t49 99q0 66 -82 66q-63 0 -127 -31l-57 -154h-131l84 314h121l-4 -45q92 53 180 53q89 0 143 -45.5 t54 -132.5q0 -83 -60 -149t-229 -187l-160 -115h334l-39 -139h-561z" />
<glyph unicode="&#xbe;" horiz-adv-x="1869" d="M80 61l1839 1469l74 -90l-1831 -1469zM145 649l23 142q102 -7 119 -7q33 0 66 3t75.5 12t74 24t53.5 42t22 63q0 90 -123 90q-45 0 -121 -12l28 108l279 182h-352l37 138h530l-35 -129l-258 -168q73 0 130 -57t57 -142q0 -69 -41 -131.5t-115 -101.5q-121 -62 -352 -62z M1061 174l35 133l399 467h168l-395 -463h192l47 172h154l-47 -172h133l-37 -137h-133l-47 -174h-154l47 174h-362z" />
<glyph unicode="&#xbf;" horiz-adv-x="946" d="M-74 -137q0 65 20.5 122t55 101.5t77.5 85t90 80t89.5 78.5t80.5 88.5t58 101.5h213q-21 -79 -71 -152t-105.5 -127t-108.5 -106.5t-87.5 -111t-34.5 -119.5t34.5 -98t102.5 -37q78 0 149 47l64 200h184l-114 -432h-158l4 72q-89 -86 -236 -86q-152 0 -229.5 82 t-77.5 211zM369 680l92 344h350l-92 -344h-350z" />
<glyph unicode="&#xc0;" horiz-adv-x="1421" d="M-145 0l41 172h167l707 1090h-192l59 172h586l-70 -1262h180l-45 -172h-594l45 172h181l22 313h-424l-199 -313h211l-45 -172h-630zM584 1901l213 122l456 -385l-145 -94zM627 666h329l33 583z" />
<glyph unicode="&#xc1;" horiz-adv-x="1421" d="M-145 0l41 172h167l707 1090h-192l59 172h586l-70 -1262h180l-45 -172h-594l45 172h181l22 313h-424l-199 -313h211l-45 -172h-630zM627 666h329l33 583zM684 1638l457 385l213 -122l-525 -357z" />
<glyph unicode="&#xc2;" horiz-adv-x="1421" d="M-145 0l41 172h167l707 1090h-192l59 172h586l-70 -1262h180l-45 -172h-594l45 172h181l22 313h-424l-199 -313h211l-45 -172h-630zM627 666h329l33 583zM680 1655l387 366h143l187 -417l-174 -52l-121 242l-297 -248z" />
<glyph unicode="&#xc3;" horiz-adv-x="1421" d="M-145 0l41 172h167l707 1090h-192l59 172h586l-70 -1262h180l-45 -172h-594l45 172h181l22 313h-424l-199 -313h211l-45 -172h-630zM549 1581q12 59 32.5 103.5t43.5 70t51 41t51 20.5t47 5q50 0 98 -23t87.5 -46t68.5 -23q25 0 39.5 21.5t24.5 84.5l159 -49 q-8 -76 -30.5 -129t-54.5 -78.5t-63 -36t-67 -10.5q-52 0 -103 22t-89 44t-60 22q-56 0 -77 -102zM627 666h329l33 583z" />
<glyph unicode="&#xc4;" horiz-adv-x="1421" d="M-145 0l41 172h167l707 1090h-192l59 172h586l-70 -1262h180l-45 -172h-594l45 172h181l22 313h-424l-199 -313h211l-45 -172h-630zM627 666h329l33 583zM678 1536l76 283h262l-76 -283h-262zM1092 1536l75 283h265l-76 -283h-264z" />
<glyph unicode="&#xc5;" horiz-adv-x="1413" d="M-152 0l41 172h168l707 1090h-193l60 172h157q-96 73 -96 217q0 145 98.5 228t245.5 83q148 0 248 -82.5t100 -232.5q0 -100 -46.5 -172t-125.5 -109l-65 -1194h180l-45 -172h-594l45 172h180l23 313h-424l-199 -313h211l-45 -172h-631zM621 666h329l33 583zM903 1645 q0 -79 41.5 -114.5t91.5 -35.5t92.5 35.5t42.5 114.5t-42 116t-93 37t-92 -37t-41 -116z" />
<glyph unicode="&#xc6;" horiz-adv-x="2189" d="M-180 0l45 172h217l893 1090h-258l51 172h1481l-113 -396h-182l24 203h-524l-117 -428h240l53 203h197l-154 -576h-196l51 189h-240l-114 -436h616l117 213h180l-123 -406h-1257l45 172h172l106 391h-366l-308 -391h215l-43 -172h-708zM799 748h280l142 520z" />
<glyph unicode="&#xc7;" horiz-adv-x="1298" d="M137 524q0 129 30.5 261t92.5 251.5t145.5 213t198.5 149t244 55.5q186 0 254 -115l31 95h178l-113 -488l-197 -8q11 84 11 92q0 34 -1 53t-5 52.5t-15 53t-29 40.5t-48.5 31t-71.5 10q-87 0 -163 -47t-129 -123t-91.5 -171t-57 -191.5t-18.5 -184.5q0 -185 83 -276 t226 -91q73 0 151 23t138 55.5t109 65t76 55.5l26 23l-25 -232q-6 -8 -19 -20.5t-59 -45.5t-99 -58.5t-140.5 -47.5t-183.5 -24l-60 -109q106 -7 169 -71t63 -158q0 -110 -88 -174t-220 -64q-63 0 -125 15t-93 31l-31 15l14 162q12 -7 33 -17t80 -27t110 -17q115 0 115 69 q0 105 -273 105l150 252q-184 37 -278.5 172.5t-94.5 359.5z" />
<glyph unicode="&#xc8;" horiz-adv-x="1470" d="M-53 0l45 172h213l295 1090h-213l43 172h1200l-113 -396h-182l25 203h-525l-117 -428h240l53 203h197l-154 -576h-196l51 189h-240l-114 -436h616l117 213h180l-123 -406h-1298zM487 1901l213 122l457 -385l-145 -94z" />
<glyph unicode="&#xc9;" horiz-adv-x="1470" d="M-53 0l45 172h213l295 1090h-213l43 172h1200l-113 -396h-182l25 203h-525l-117 -428h240l53 203h197l-154 -576h-196l51 189h-240l-114 -436h616l117 213h180l-123 -406h-1298zM717 1638l457 385l212 -122l-524 -357z" />
<glyph unicode="&#xca;" horiz-adv-x="1470" d="M-53 0l45 172h213l295 1090h-213l43 172h1200l-113 -396h-182l25 203h-525l-117 -428h240l53 203h197l-154 -576h-196l51 189h-240l-114 -436h616l117 213h180l-123 -406h-1298zM565 1655l387 366h144l186 -417l-174 -52l-121 242l-297 -248z" />
<glyph unicode="&#xcb;" horiz-adv-x="1470" d="M-53 0l45 172h213l295 1090h-213l43 172h1200l-113 -396h-182l25 203h-525l-117 -428h240l53 203h197l-154 -576h-196l51 189h-240l-114 -436h616l117 213h180l-123 -406h-1298zM586 1575l76 283h262l-76 -283h-262zM999 1575l76 283h264l-75 -283h-265z" />
<glyph unicode="&#xcc;" horiz-adv-x="841" d="M-53 0l45 172h215l291 1090h-215l47 172h669l-47 -172h-213l-290 -1090h213l-46 -172h-669zM315 1901l213 122l457 -385l-145 -94z" />
<glyph unicode="&#xcd;" horiz-adv-x="841" d="M-53 0l45 172h215l291 1090h-215l47 172h669l-47 -172h-213l-290 -1090h213l-46 -172h-669zM342 1638l457 385l213 -122l-525 -357z" />
<glyph unicode="&#xce;" horiz-adv-x="841" d="M-53 0l45 172h215l291 1090h-215l47 172h669l-47 -172h-213l-290 -1090h213l-46 -172h-669zM334 1655l387 366h143l187 -417l-174 -52l-121 242l-297 -248z" />
<glyph unicode="&#xcf;" horiz-adv-x="841" d="M-53 0l45 172h215l291 1090h-215l47 172h669l-47 -172h-213l-290 -1090h213l-46 -172h-669zM358 1575l76 283h262l-75 -283h-263zM772 1575l76 283h264l-76 -283h-264z" />
<glyph unicode="&#xd0;" horiz-adv-x="1519" d="M-51 0l45 172h215l125 461h-199l45 184h203l121 445h-215l43 172h669q222 0 358 -134.5t136 -379.5q0 -133 -35 -267q-72 -285 -258 -452q-222 -201 -594 -201h-659zM449 172h163q233 0 388 139t221 389q30 117 30 215q0 159 -84 251.5t-262 95.5h-168l-119 -445h297 l-45 -184h-301z" />
<glyph unicode="&#xd1;" horiz-adv-x="1599" d="M-53 0l45 172h215l291 1090h-219l47 172h489l264 -1094l242 922h-219l47 172h627l-47 -172h-195l-336 -1262h-240l-278 1171l-246 -999h217l-45 -172h-659zM696 1606q15 73 42 123.5t60.5 74t63 32.5t60.5 9q50 0 98 -23t87.5 -46t68.5 -23q25 0 39 22t24 85l160 -50 q-8 -76 -30.5 -129t-54.5 -78.5t-63 -36t-67 -10.5q-41 0 -82 14t-68 30.5t-55.5 30.5t-46.5 14q-57 0 -78 -103z" />
<glyph unicode="&#xd2;" d="M129 494q0 127 29.5 259.5t92 258t149.5 224t211.5 158.5t267.5 60q212 0 335 -130t123 -392q0 -105 -20.5 -214t-60.5 -216t-104 -201t-144 -166t-188 -113.5t-230 -41.5q-212 0 -336.5 128t-124.5 386zM373 471q0 -141 62.5 -218t180.5 -77q147 0 262.5 127.5 t180.5 388.5q39 153 39 273q0 139 -62.5 215.5t-179.5 76.5q-147 0 -263 -127.5t-181 -388.5q-39 -153 -39 -270zM639 1901l213 122l457 -385l-146 -94z" />
<glyph unicode="&#xd3;" d="M129 494q0 127 29.5 259.5t92 258t149.5 224t211.5 158.5t267.5 60q212 0 335 -130t123 -392q0 -105 -20.5 -214t-60.5 -216t-104 -201t-144 -166t-188 -113.5t-230 -41.5q-212 0 -336.5 128t-124.5 386zM373 471q0 -141 62.5 -218t180.5 -77q147 0 262.5 127.5 t180.5 388.5q39 153 39 273q0 139 -62.5 215.5t-179.5 76.5q-147 0 -263 -127.5t-181 -388.5q-39 -153 -39 -270zM637 1638l457 385l213 -122l-525 -357z" />
<glyph unicode="&#xd4;" d="M129 494q0 127 29.5 259.5t92 258t149.5 224t211.5 158.5t267.5 60q212 0 335 -130t123 -392q0 -105 -20.5 -214t-60.5 -216t-104 -201t-144 -166t-188 -113.5t-230 -41.5q-212 0 -336.5 128t-124.5 386zM373 471q0 -141 62.5 -218t180.5 -77q147 0 262.5 127.5 t180.5 388.5q39 153 39 273q0 139 -62.5 215.5t-179.5 76.5q-147 0 -263 -127.5t-181 -388.5q-39 -153 -39 -270zM594 1655l387 366h143l187 -417l-174 -52l-121 242l-297 -248z" />
<glyph unicode="&#xd5;" d="M129 494q0 127 29.5 259.5t92 258t149.5 224t211.5 158.5t267.5 60q212 0 335 -130t123 -392q0 -105 -20.5 -214t-60.5 -216t-104 -201t-144 -166t-188 -113.5t-230 -41.5q-212 0 -336.5 128t-124.5 386zM373 471q0 -141 62.5 -218t180.5 -77q147 0 262.5 127.5 t180.5 388.5q39 153 39 273q0 139 -62.5 215.5t-179.5 76.5q-147 0 -263 -127.5t-181 -388.5q-39 -153 -39 -270zM563 1581q12 59 32.5 103.5t43.5 70t51 41t51 20.5t47 5q50 0 98 -23t87.5 -46t68.5 -23q25 0 39.5 21.5t24.5 84.5l160 -49q-8 -76 -30.5 -129t-54.5 -78.5 t-63 -36t-67 -10.5q-52 0 -103 22t-89 44t-60 22q-57 0 -78 -102z" />
<glyph unicode="&#xd6;" d="M129 494q0 127 29.5 259.5t92 258t149.5 224t211.5 158.5t267.5 60q212 0 335 -130t123 -392q0 -105 -20.5 -214t-60.5 -216t-104 -201t-144 -166t-188 -113.5t-230 -41.5q-212 0 -336.5 128t-124.5 386zM373 471q0 -141 62.5 -218t180.5 -77q147 0 262.5 127.5 t180.5 388.5q39 153 39 273q0 139 -62.5 215.5t-179.5 76.5q-147 0 -263 -127.5t-181 -388.5q-39 -153 -39 -270zM588 1575l76 283h262l-76 -283h-262zM1001 1575l76 283h264l-75 -283h-265z" />
<glyph unicode="&#xd7;" horiz-adv-x="1425" d="M23 293l608 452l-369 474l176 131l361 -478l569 443l127 -162l-567 -432l356 -469l-168 -139l-364 479l-613 -463z" />
<glyph unicode="&#xd8;" d="M-16 -109l221 279q-76 121 -76 315q0 93 15 188.5t46.5 190.5t76.5 182t107.5 161.5t136.5 129.5t167 86t196 31q163 0 281 -82l221 281l125 -97l-237 -301q73 -124 73 -311q0 -131 -28.5 -264.5t-90 -259.5t-147.5 -224t-210.5 -157t-270.5 -59q-164 0 -273 75 l-208 -264zM373 467q0 -41 6 -76l639 807q-59 59 -160 59q-154 0 -268 -130t-178 -386q-39 -153 -39 -274zM457 231q58 -55 155 -55q151 0 266 127t181 389q39 153 39 275q0 37 -6 71z" />
<glyph unicode="&#xd9;" horiz-adv-x="1630" d="M223 354q0 80 27 185l192 723h-192l47 172h649l-47 -172h-215l-192 -725q-25 -98 -25 -156q0 -111 67.5 -161t202.5 -50q77 0 138 16.5t117.5 56t99.5 113t71 181.5l193 725h-234l47 172h648l-48 -172h-194l-195 -748q-68 -261 -200 -387q-155 -147 -451 -147 q-84 0 -155 10.5t-137.5 37t-112.5 68t-73.5 107.5t-27.5 151zM686 1901l213 122l457 -385l-146 -94z" />
<glyph unicode="&#xda;" horiz-adv-x="1630" d="M223 354q0 80 27 185l192 723h-192l47 172h649l-47 -172h-215l-192 -725q-25 -98 -25 -156q0 -111 67.5 -161t202.5 -50q77 0 138 16.5t117.5 56t99.5 113t71 181.5l193 725h-234l47 172h648l-48 -172h-194l-195 -748q-68 -261 -200 -387q-155 -147 -451 -147 q-84 0 -155 10.5t-137.5 37t-112.5 68t-73.5 107.5t-27.5 151zM788 1638l457 385l213 -122l-524 -357z" />
<glyph unicode="&#xdb;" horiz-adv-x="1630" d="M223 354q0 80 27 185l192 723h-192l47 172h649l-47 -172h-215l-192 -725q-25 -98 -25 -156q0 -111 67.5 -161t202.5 -50q77 0 138 16.5t117.5 56t99.5 113t71 181.5l193 725h-234l47 172h648l-48 -172h-194l-195 -748q-68 -261 -200 -387q-155 -147 -451 -147 q-84 0 -155 10.5t-137.5 37t-112.5 68t-73.5 107.5t-27.5 151zM705 1655l387 366h143l186 -417l-174 -52l-121 242l-297 -248z" />
<glyph unicode="&#xdc;" horiz-adv-x="1630" d="M223 354q0 80 27 185l192 723h-192l47 172h649l-47 -172h-215l-192 -725q-25 -98 -25 -156q0 -111 67.5 -161t202.5 -50q77 0 138 16.5t117.5 56t99.5 113t71 181.5l193 725h-234l47 172h648l-48 -172h-194l-195 -748q-68 -261 -200 -387q-155 -147 -451 -147 q-84 0 -155 10.5t-137.5 37t-112.5 68t-73.5 107.5t-27.5 151zM766 1575l76 283h262l-76 -283h-262zM1180 1575l75 283h265l-76 -283h-264z" />
<glyph unicode="&#xdd;" horiz-adv-x="1402" d="M188 1262l48 172h632l-47 -172h-203l150 -543l428 543h-186l47 172h602l-47 -172h-178l-594 -723l-97 -359h215l-47 -180h-669l47 180h213l96 359l-219 723h-191zM719 1638l457 385l213 -122l-525 -357z" />
<glyph unicode="&#xde;" horiz-adv-x="1372" d="M-59 0l45 172h229l293 1090h-232l46 172h741l-45 -172h-266l-29 -107h326q109 0 197.5 -42.5t144 -133.5t55.5 -217q0 -220 -164 -348.5t-446 -128.5h-60l-39 202q12 0 33.5 -1t42.5 -1q180 0 285.5 65t105.5 206q0 102 -55.5 153.5t-138.5 51.5h-334l-207 -789h256 l-45 -172h-739z" />
<glyph unicode="&#xdf;" horiz-adv-x="1210" d="M-332 -360l119 186q2 -4 6 -10.5t19 -23.5t32.5 -30t47 -23.5t61.5 -10.5q34 0 59.5 12t40.5 27.5t27.5 46t17.5 51.5t13 59l186 920h-191l35 180h193l28 119q43 178 154.5 282.5t284.5 104.5q147 0 241 -70q113 -81 113 -225q0 -133 -102 -260q-131 -156 -135 -162 q-25 -37 -25 -70q0 -29 20 -65q17 -32 73.5 -103.5t90 -140t33.5 -147.5q0 -129 -89.5 -218t-264.5 -89q-69 0 -131 15t-89 29l-28 15l33 180q11 -7 30 -16.5t70 -26t94 -16.5q64 0 101.5 31.5t37.5 82.5q0 37 -22 79.5t-54 83.5t-63.5 83t-53.5 92.5t-22 98.5 q0 52 26 106.5t64 101.5t77 91.5t70 89.5t38 82q2 12 2 22q0 133 -137 133q-54 0 -92 -24t-72.5 -94.5t-59.5 -194.5l-231 -1153q-34 -169 -124.5 -259.5t-256.5 -90.5q-60 0 -112.5 12.5t-84.5 30t-55.5 34.5t-32.5 30z" />
<glyph unicode="&#xe0;" horiz-adv-x="1236" d="M35 262q0 91 28 197t81 209t123 187.5t162 136.5t189 52q89 0 161.5 -44t101.5 -128l47 152h246q-22 -64 -56.5 -165.5t-100.5 -319t-85 -322.5l264 121l-49 -199q-27 -18 -70 -44.5t-140 -70.5t-153 -44q-48 0 -75 29.5t-27 78.5q0 41 18.5 118t44.5 146 q-112 -184 -237 -278t-246 -94q-113 0 -170 77.5t-57 204.5zM279 254q0 -90 53 -90q54 0 149.5 80t180 180t131.5 178q2 18 2 62q0 39 -6.5 74t-21.5 68t-44.5 52t-69.5 19q-63 0 -123 -46.5t-104 -118.5t-78 -156.5t-51.5 -164t-17.5 -137.5zM397 1487l213 123l457 -385 l-145 -95z" />
<glyph unicode="&#xe1;" horiz-adv-x="1236" d="M35 262q0 91 28 197t81 209t123 187.5t162 136.5t189 52q89 0 161.5 -44t101.5 -128l47 152h246q-22 -64 -56.5 -165.5t-100.5 -319t-85 -322.5l264 121l-49 -199q-27 -18 -70 -44.5t-140 -70.5t-153 -44q-48 0 -75 29.5t-27 78.5q0 41 18.5 118t44.5 146 q-112 -184 -237 -278t-246 -94q-113 0 -170 77.5t-57 204.5zM279 254q0 -90 53 -90q54 0 149.5 80t180 180t131.5 178q2 18 2 62q0 39 -6.5 74t-21.5 68t-44.5 52t-69.5 19q-63 0 -123 -46.5t-104 -118.5t-78 -156.5t-51.5 -164t-17.5 -137.5zM479 1225l457 385l213 -123 l-524 -357z" />
<glyph unicode="&#xe2;" horiz-adv-x="1236" d="M35 262q0 91 28 197t81 209t123 187.5t162 136.5t189 52q89 0 161.5 -44t101.5 -128l47 152h246q-22 -64 -56.5 -165.5t-100.5 -319t-85 -322.5l264 121l-49 -199q-27 -18 -70 -44.5t-140 -70.5t-153 -44q-48 0 -75 29.5t-27 78.5q0 41 18.5 118t44.5 146 q-112 -184 -237 -278t-246 -94q-113 0 -170 77.5t-57 204.5zM279 254q0 -90 53 -90q54 0 149.5 80t180 180t131.5 178q2 18 2 62q0 39 -6.5 74t-21.5 68t-44.5 52t-69.5 19q-63 0 -123 -46.5t-104 -118.5t-78 -156.5t-51.5 -164t-17.5 -137.5zM397 1241l387 367h144 l186 -418l-174 -51l-121 241l-297 -247z" />
<glyph unicode="&#xe3;" horiz-adv-x="1236" d="M35 262q0 91 28 197t81 209t123 187.5t162 136.5t189 52q89 0 161.5 -44t101.5 -128l47 152h246q-22 -64 -56.5 -165.5t-100.5 -319t-85 -322.5l264 121l-49 -199q-27 -18 -70 -44.5t-140 -70.5t-153 -44q-48 0 -75 29.5t-27 78.5q0 41 18.5 118t44.5 146 q-112 -184 -237 -278t-246 -94q-113 0 -170 77.5t-57 204.5zM279 254q0 -90 53 -90q54 0 149.5 80t180 180t131.5 178q2 18 2 62q0 39 -6.5 74t-21.5 68t-44.5 52t-69.5 19q-63 0 -123 -46.5t-104 -118.5t-78 -156.5t-51.5 -164t-17.5 -137.5zM377 1202q12 59 32.5 103.5 t43.5 70t51 41t51 20.5t47 5q50 0 98 -23t87.5 -46t68.5 -23q25 0 39.5 21.5t24.5 84.5l159 -49q-8 -76 -30.5 -129t-54.5 -78.5t-63 -36t-67 -10.5q-52 0 -103 22t-89 44t-60 22q-56 0 -77 -102z" />
<glyph unicode="&#xe4;" horiz-adv-x="1236" d="M35 262q0 91 28 197t81 209t123 187.5t162 136.5t189 52q89 0 161.5 -44t101.5 -128l47 152h246q-22 -64 -56.5 -165.5t-100.5 -319t-85 -322.5l264 121l-49 -199q-27 -18 -70 -44.5t-140 -70.5t-153 -44q-48 0 -75 29.5t-27 78.5q0 41 18.5 118t44.5 146 q-112 -184 -237 -278t-246 -94q-113 0 -170 77.5t-57 204.5zM279 254q0 -90 53 -90q54 0 149.5 80t180 180t131.5 178q2 18 2 62q0 39 -6.5 74t-21.5 68t-44.5 52t-69.5 19q-63 0 -123 -46.5t-104 -118.5t-78 -156.5t-51.5 -164t-17.5 -137.5zM391 1151l76 283h262l-76 -283 h-262zM805 1151l76 283h264l-76 -283h-264z" />
<glyph unicode="&#xe5;" horiz-adv-x="1236" d="M35 262q0 91 28 197t81 209t123 187.5t162 136.5t189 52q89 0 161.5 -44t101.5 -128l47 152h246q-22 -64 -56.5 -165.5t-100.5 -319t-85 -322.5l264 121l-49 -199q-27 -18 -70 -44.5t-140 -70.5t-153 -44q-48 0 -75 29.5t-27 78.5q0 41 18.5 118t44.5 146 q-112 -184 -237 -278t-246 -94q-113 0 -170 77.5t-57 204.5zM279 254q0 -90 53 -90q54 0 149.5 80t180 180t131.5 178q2 18 2 62q0 39 -6.5 74t-21.5 68t-44.5 52t-69.5 19q-63 0 -123 -46.5t-104 -118.5t-78 -156.5t-51.5 -164t-17.5 -137.5zM494 1427q0 131 86 204t217 73 q130 0 217.5 -73t87.5 -204q0 -132 -87.5 -205t-217.5 -73t-216.5 73t-86.5 205zM680 1425q0 -69 36.5 -100t80.5 -31q43 0 80.5 31.5t37.5 99.5q0 69 -37 102.5t-81 33.5q-45 0 -81 -33.5t-36 -102.5z" />
<glyph unicode="&#xe6;" horiz-adv-x="1636" d="M35 262q0 91 28 197t81 209t123 187.5t162 136.5t189 52q89 0 161.5 -44t101.5 -128q83 85 188.5 128.5t218.5 43.5q135 0 222 -64t87 -196q0 -13 -1.5 -25.5t-10.5 -41.5t-26 -54t-52.5 -56.5t-83.5 -55.5q-160 -82 -436 -82h-63q-9 -38 -9 -61q0 -120 54.5 -178 t154.5 -58q52 0 112 15.5t108.5 37.5t89.5 44t64 37l22 16l-54 -226q-7 -5 -20 -12.5t-55 -27.5t-85.5 -35.5t-108.5 -28t-128 -12.5q-155 0 -255.5 72t-129.5 208q-104 -143 -212 -211.5t-210 -68.5q-113 0 -170 77.5t-57 204.5zM279 254q0 -90 51 -90q56 0 156.5 84.5 t195.5 202.5q19 153 104 299q-12 54 -44.5 90.5t-90.5 36.5q-76 0 -148 -70t-119.5 -169.5t-76 -204t-28.5 -179.5zM987 637q133 0 240 29q77 22 114 56.5t37 74.5q0 36 -29 54.5t-73 18.5q-86 0 -166.5 -63.5t-122.5 -169.5z" />
<glyph unicode="&#xe7;" horiz-adv-x="972" d="M61 371q0 170 75.5 326.5t199 251.5t256.5 95q125 0 180 -79l55 79h156l-109 -403h-167q2 24 4 49t3 38.5t1 23.5q0 61 -33.5 90.5t-79.5 29.5q-50 0 -104 -37t-99 -98t-74.5 -147.5t-29.5 -177.5q0 -240 211 -240q55 0 116 15.5t109.5 37.5t89 44t62.5 37l22 16 l-53 -226q-6 -4 -16 -10.5t-44.5 -23.5t-71.5 -31t-92.5 -28t-111.5 -19l-59 -111q107 -7 166 -62.5t59 -146.5q0 -112 -85.5 -175.5t-217.5 -63.5q-63 0 -125.5 15.5t-93.5 30.5l-31 15l14 162q12 -7 33.5 -17.5t81 -27.5t111.5 -17q106 0 106 68q0 51 -60 64.5t-206 13.5 l147 256q-295 63 -295 383z" />
<glyph unicode="&#xe8;" horiz-adv-x="1017" d="M57 354q0 94 29 201q63 231 224 360t360 129q135 0 222 -64t87 -196q0 -13 -1.5 -25.5t-10.5 -41.5t-26 -54t-52.5 -56.5t-83.5 -55.5q-160 -82 -436 -82h-64q-8 -33 -8 -61q0 -120 54.5 -178t154.5 -58q52 0 112 15.5t108 37.5t89 44t63 37l23 16l-53 -226 q-7 -5 -20 -12.5t-54.5 -27.5t-85.5 -35.5t-108.5 -28t-126.5 -12.5q-183 0 -289.5 98t-106.5 276zM336 1487l213 123l457 -385l-146 -95zM369 637q132 0 239 29q78 22 115 57t37 74q0 36 -29 54.5t-74 18.5q-86 0 -166 -63.5t-122 -169.5z" />
<glyph unicode="&#xe9;" horiz-adv-x="1017" d="M57 354q0 94 29 201q63 231 224 360t360 129q135 0 222 -64t87 -196q0 -13 -1.5 -25.5t-10.5 -41.5t-26 -54t-52.5 -56.5t-83.5 -55.5q-160 -82 -436 -82h-64q-8 -33 -8 -61q0 -120 54.5 -178t154.5 -58q52 0 112 15.5t108 37.5t89 44t63 37l23 16l-53 -226 q-7 -5 -20 -12.5t-54.5 -27.5t-85.5 -35.5t-108.5 -28t-126.5 -12.5q-183 0 -289.5 98t-106.5 276zM358 1225l457 385l213 -123l-524 -357zM369 637q132 0 239 29q78 22 115 57t37 74q0 36 -29 54.5t-74 18.5q-86 0 -166 -63.5t-122 -169.5z" />
<glyph unicode="&#xea;" horiz-adv-x="1017" d="M57 354q0 94 29 201q63 231 224 360t360 129q135 0 222 -64t87 -196q0 -13 -1.5 -25.5t-10.5 -41.5t-26 -54t-52.5 -56.5t-83.5 -55.5q-160 -82 -436 -82h-64q-8 -33 -8 -61q0 -120 54.5 -178t154.5 -58q52 0 112 15.5t108 37.5t89 44t63 37l23 16l-53 -226 q-7 -5 -20 -12.5t-54.5 -27.5t-85.5 -35.5t-108.5 -28t-126.5 -12.5q-183 0 -289.5 98t-106.5 276zM330 1241l387 367h143l187 -418l-175 -51l-120 241l-297 -247zM369 637q132 0 239 29q78 22 115 57t37 74q0 36 -29 54.5t-74 18.5q-86 0 -166 -63.5t-122 -169.5z" />
<glyph unicode="&#xeb;" horiz-adv-x="1017" d="M57 354q0 94 29 201q63 231 224 360t360 129q135 0 222 -64t87 -196q0 -13 -1.5 -25.5t-10.5 -41.5t-26 -54t-52.5 -56.5t-83.5 -55.5q-160 -82 -436 -82h-64q-8 -33 -8 -61q0 -120 54.5 -178t154.5 -58q52 0 112 15.5t108 37.5t89 44t63 37l23 16l-53 -226 q-7 -5 -20 -12.5t-54.5 -27.5t-85.5 -35.5t-108.5 -28t-126.5 -12.5q-183 0 -289.5 98t-106.5 276zM270 1151l76 283h262l-76 -283h-262zM369 637q132 0 239 29q78 22 115 57t37 74q0 36 -29 54.5t-74 18.5q-86 0 -166 -63.5t-122 -169.5zM684 1151l76 283h264l-76 -283 h-264z" />
<glyph unicode="&#xec;" horiz-adv-x="669" d="M0 1487l213 123l457 -385l-146 -95zM102 864l41 160h475q-22 -64 -56 -165.5t-100 -319t-85 -322.5l264 121l-49 -199q-28 -18 -72 -44.5t-142.5 -70.5t-152.5 -44q-47 0 -80.5 29t-33.5 75q0 56 51.5 251t103.5 362l51 167h-215z" />
<glyph unicode="&#xed;" horiz-adv-x="669" d="M102 864l41 160h475q-22 -64 -56 -165.5t-100 -319t-85 -322.5l264 121l-49 -199q-28 -18 -72 -44.5t-142.5 -70.5t-152.5 -44q-47 0 -80.5 29t-33.5 75q0 56 51.5 251t103.5 362l51 167h-215zM164 1225l457 385l213 -123l-525 -357z" />
<glyph unicode="&#xee;" horiz-adv-x="669" d="M102 864l41 160h475q-22 -64 -56 -165.5t-100 -319t-85 -322.5l264 121l-49 -199q-28 -18 -72 -44.5t-142.5 -70.5t-152.5 -44q-47 0 -80.5 29t-33.5 75q0 56 51.5 251t103.5 362l51 167h-215zM141 1241l387 367h144l186 -418l-174 -51l-121 241l-297 -247z" />
<glyph unicode="&#xef;" horiz-adv-x="669" d="M102 864l41 160h475q-22 -64 -56 -165.5t-100 -319t-85 -322.5l264 121l-49 -199q-28 -18 -72 -44.5t-142.5 -70.5t-152.5 -44q-47 0 -80.5 29t-33.5 75q0 56 51.5 251t103.5 362l51 167h-215zM143 1151l76 283h262l-75 -283h-263zM557 1151l76 283h264l-76 -283h-264z " />
<glyph unicode="&#xf0;" horiz-adv-x="1097" d="M61 365q0 91 23.5 186t70.5 183t110.5 157.5t152 111t186.5 41.5q70 0 125.5 -20.5t77.5 -62.5q-38 136 -115 274l-221 -109l-39 123l193 97q-27 40 -55 76.5t-42 53.5l-14 17l215 78q43 -45 96 -125l199 100l37 -127l-168 -84q63 -115 106 -265t43 -306 q0 -103 -20 -207.5t-66 -209.5t-113.5 -185.5t-171.5 -131t-231 -50.5q-177 0 -278 97.5t-101 287.5zM297 356q0 -98 38 -144t114 -46q65 0 124 32.5t101 85t73 118t46.5 132.5t15.5 128q0 192 -160 192q-79 0 -147.5 -47.5t-112 -122t-68 -160.5t-24.5 -168z" />
<glyph unicode="&#xf1;" horiz-adv-x="1273" d="M55 0l236 864h-158l41 160h399q-55 -170 -114 -346q46 72 96 132.5t110 115.5t127.5 86.5t133.5 31.5q94 0 149 -59.5t55 -140.5q0 -65 -39 -222t-79 -281l-39 -124l268 121l-49 -199q-27 -18 -69.5 -44.5t-138.5 -70.5t-150 -44q-48 0 -81.5 29.5t-33.5 74.5 q0 60 91 359t91 345q0 41 -41 41q-59 0 -160 -85.5t-181.5 -182.5t-112.5 -155l-109 -406h-242zM377 1202q12 59 32.5 103.5t43.5 70t51 41t51 20.5t47 5q50 0 98 -23t87.5 -46t68.5 -23q25 0 39.5 21.5t24.5 84.5l159 -49q-8 -76 -30.5 -129t-54.5 -78.5t-63 -36t-67 -10.5 q-52 0 -103 22t-89 44t-60 22q-56 0 -77 -102z" />
<glyph unicode="&#xf2;" horiz-adv-x="1099" d="M61 365q0 119 42 248t126 233q160 198 420 198q184 0 285.5 -95.5t101.5 -282.5q0 -74 -16.5 -152t-48.5 -155t-83 -145t-115.5 -120.5t-151 -83t-183.5 -30.5q-175 0 -276 98t-101 287zM293 369q0 -203 172 -203q66 0 123.5 32.5t97 84t67.5 115.5t41 127.5t13 119.5 q0 60 -15 102.5t-41 64.5t-55.5 32t-64.5 10q-81 0 -148.5 -49.5t-107 -125t-61 -156.5t-21.5 -154zM393 1487l213 123l457 -385l-145 -95z" />
<glyph unicode="&#xf3;" horiz-adv-x="1099" d="M61 365q0 119 42 248t126 233q160 198 420 198q184 0 285.5 -95.5t101.5 -282.5q0 -74 -16.5 -152t-48.5 -155t-83 -145t-115.5 -120.5t-151 -83t-183.5 -30.5q-175 0 -276 98t-101 287zM293 369q0 -203 172 -203q66 0 123.5 32.5t97 84t67.5 115.5t41 127.5t13 119.5 q0 60 -15 102.5t-41 64.5t-55.5 32t-64.5 10q-81 0 -148.5 -49.5t-107 -125t-61 -156.5t-21.5 -154zM360 1225l457 385l213 -123l-524 -357z" />
<glyph unicode="&#xf4;" horiz-adv-x="1099" d="M61 365q0 119 42 248t126 233q160 198 420 198q184 0 285.5 -95.5t101.5 -282.5q0 -74 -16.5 -152t-48.5 -155t-83 -145t-115.5 -120.5t-151 -83t-183.5 -30.5q-175 0 -276 98t-101 287zM293 369q0 -203 172 -203q66 0 123.5 32.5t97 84t67.5 115.5t41 127.5t13 119.5 q0 60 -15 102.5t-41 64.5t-55.5 32t-64.5 10q-81 0 -148.5 -49.5t-107 -125t-61 -156.5t-21.5 -154zM348 1241l387 367h144l186 -418l-174 -51l-121 241l-297 -247z" />
<glyph unicode="&#xf5;" horiz-adv-x="1099" d="M61 365q0 119 42 248t126 233q160 198 420 198q184 0 285.5 -95.5t101.5 -282.5q0 -74 -16.5 -152t-48.5 -155t-83 -145t-115.5 -120.5t-151 -83t-183.5 -30.5q-175 0 -276 98t-101 287zM293 369q0 -203 172 -203q66 0 123.5 32.5t97 84t67.5 115.5t41 127.5t13 119.5 q0 60 -15 102.5t-41 64.5t-55.5 32t-64.5 10q-81 0 -148.5 -49.5t-107 -125t-61 -156.5t-21.5 -154zM319 1202q15 73 42 123.5t60.5 74t63 33t60.5 9.5q50 0 98 -23t87.5 -46t68.5 -23q25 0 39 21.5t24 84.5l160 -49q-8 -76 -30.5 -129t-54.5 -78.5t-63 -36t-67 -10.5 q-52 0 -103 22t-89 44t-60 22q-57 0 -78 -102z" />
<glyph unicode="&#xf6;" horiz-adv-x="1099" d="M61 365q0 119 42 248t126 233q160 198 420 198q184 0 285.5 -95.5t101.5 -282.5q0 -74 -16.5 -152t-48.5 -155t-83 -145t-115.5 -120.5t-151 -83t-183.5 -30.5q-175 0 -276 98t-101 287zM293 369q0 -203 172 -203q66 0 123.5 32.5t97 84t67.5 115.5t41 127.5t13 119.5 q0 60 -15 102.5t-41 64.5t-55.5 32t-64.5 10q-81 0 -148.5 -49.5t-107 -125t-61 -156.5t-21.5 -154zM340 1151l76 283h262l-76 -283h-262zM754 1151l75 283h265l-76 -283h-264z" />
<glyph unicode="&#xf7;" horiz-adv-x="1191" d="M104 621l56 200h1034l-55 -200h-1035zM352 199l80 299h309l-79 -299h-310zM553 944l80 299h309l-80 -299h-309z" />
<glyph unicode="&#xf8;" horiz-adv-x="1099" d="M-59 -145l200 245q-80 99 -80 260q0 119 41 249.5t127 236.5q160 198 416 198q133 0 221 -49l205 252l107 -69l-213 -263q71 -89 71 -245q0 -92 -23 -186.5t-72 -185.5t-118 -161.5t-169.5 -113.5t-217.5 -43q-114 0 -196 43l-195 -240zM293 352q0 -27 4 -59l432 532 q-50 29 -106 29q-76 0 -140.5 -47.5t-105 -122t-62.5 -161.5t-22 -171zM375 188q37 -22 90 -22q67 0 124 31.5t96.5 83t67.5 117t41 133.5t13 133q0 27 -4 51z" />
<glyph unicode="&#xf9;" horiz-adv-x="1257" d="M102 176q0 68 45 240t89 310l45 138h-158l41 160h403q-10 -28 -25.5 -75t-56 -172t-71.5 -225t-56.5 -195.5t-25.5 -123.5q0 -38 43 -38q58 0 157.5 84t180 181t114.5 158l68 246h-174l41 160h405q-50 -156 -106 -359.5t-87 -328.5l-30 -125l270 127l-49 -199l-25.5 -17 t-63 -38.5t-88.5 -48.5t-92.5 -38t-84.5 -17q-48 0 -73 29t-25 75q0 68 61 262q-43 -68 -91.5 -127.5t-108.5 -116t-129.5 -89.5t-137.5 -33q-95 0 -150 59.5t-55 136.5zM332 1487l213 123l456 -385l-145 -95z" />
<glyph unicode="&#xfa;" horiz-adv-x="1257" d="M102 176q0 68 45 240t89 310l45 138h-158l41 160h403q-10 -28 -25.5 -75t-56 -172t-71.5 -225t-56.5 -195.5t-25.5 -123.5q0 -38 43 -38q58 0 157.5 84t180 181t114.5 158l68 246h-174l41 160h405q-50 -156 -106 -359.5t-87 -328.5l-30 -125l270 127l-49 -199l-25.5 -17 t-63 -38.5t-88.5 -48.5t-92.5 -38t-84.5 -17q-48 0 -73 29t-25 75q0 68 61 262q-43 -68 -91.5 -127.5t-108.5 -116t-129.5 -89.5t-137.5 -33q-95 0 -150 59.5t-55 136.5zM514 1225l457 385l213 -123l-525 -357z" />
<glyph unicode="&#xfb;" horiz-adv-x="1257" d="M102 176q0 68 45 240t89 310l45 138h-158l41 160h403q-10 -28 -25.5 -75t-56 -172t-71.5 -225t-56.5 -195.5t-25.5 -123.5q0 -38 43 -38q58 0 157.5 84t180 181t114.5 158l68 246h-174l41 160h405q-50 -156 -106 -359.5t-87 -328.5l-30 -125l270 127l-49 -199l-25.5 -17 t-63 -38.5t-88.5 -48.5t-92.5 -38t-84.5 -17q-48 0 -73 29t-25 75q0 68 61 262q-43 -68 -91.5 -127.5t-108.5 -116t-129.5 -89.5t-137.5 -33q-95 0 -150 59.5t-55 136.5zM328 1241l387 367h143l186 -418l-174 -51l-120 241l-297 -247z" />
<glyph unicode="&#xfc;" horiz-adv-x="1257" d="M102 176q0 68 45 240t89 310l45 138h-158l41 160h403q-10 -28 -25.5 -75t-56 -172t-71.5 -225t-56.5 -195.5t-25.5 -123.5q0 -38 43 -38q58 0 157.5 84t180 181t114.5 158l68 246h-174l41 160h405q-50 -156 -106 -359.5t-87 -328.5l-30 -125l270 127l-49 -199l-25.5 -17 t-63 -38.5t-88.5 -48.5t-92.5 -38t-84.5 -17q-48 0 -73 29t-25 75q0 68 61 262q-43 -68 -91.5 -127.5t-108.5 -116t-129.5 -89.5t-137.5 -33q-95 0 -150 59.5t-55 136.5zM379 1151l76 283h262l-76 -283h-262zM793 1151l75 283h265l-76 -283h-264z" />
<glyph unicode="&#xfd;" horiz-adv-x="1085" d="M-246 -397l41 209q13 -6 36.5 -15.5t93 -25t136.5 -15.5q87 0 153 26t112 72t88 119l-203 891h-219l41 160h395l164 -836q55 122 122.5 357.5t110.5 453.5l267 48q-10 -35 -39 -139.5t-44 -157t-47 -155.5t-55.5 -168t-61 -158t-72 -161t-80 -143.5t-93.5 -136.5 q-109 -139 -237.5 -209t-294.5 -70q-75 0 -153.5 13.5t-119.5 27.5zM352 1225l457 385l213 -123l-524 -357z" />
<glyph unicode="&#xfe;" horiz-adv-x="1165" d="M-258 -430l45 180h156l413 1524h-157l41 160h399q-168 -592 -227 -768q112 184 237 281t248 97q114 0 169.5 -78.5t55.5 -211.5q0 -98 -28.5 -205.5t-84.5 -208t-130 -181.5t-173.5 -130t-207.5 -49q-53 0 -95.5 11.5t-66 28.5t-40 34t-21.5 28l-5 12l-90 -344h236 l-45 -180h-629zM346 303q0 -66 34 -113t105 -47q68 0 132 47t110 119.5t81.5 157.5t53 165t17.5 138q0 90 -52 90q-55 0 -152.5 -83t-189 -201.5t-135.5 -219.5q-4 -36 -4 -53z" />
<glyph unicode="&#xff;" horiz-adv-x="1085" d="M-246 -397l41 209q13 -6 36.5 -15.5t93 -25t136.5 -15.5q87 0 153 26t112 72t88 119l-203 891h-219l41 160h395l164 -836q55 122 122.5 357.5t110.5 453.5l267 48q-10 -35 -39 -139.5t-44 -157t-47 -155.5t-55.5 -168t-61 -158t-72 -161t-80 -143.5t-93.5 -136.5 q-109 -139 -237.5 -209t-294.5 -70q-75 0 -153.5 13.5t-119.5 27.5zM215 1151l76 283h262l-76 -283h-262zM629 1151l76 283h264l-76 -283h-264z" />
<glyph unicode="&#x152;" horiz-adv-x="2140" d="M135 547q0 186 60 348t168 281.5t269.5 188.5t354.5 69h1213l-113 -396h-182l22 203h-524l-115 -428h240l53 203h197l-154 -576h-197l52 189h-240l-117 -436h617l119 213h180l-123 -406h-1268q-115 0 -206 29.5t-161 92.5t-107.5 170.5t-37.5 254.5zM379 545 q0 -194 78.5 -273t253.5 -79h170l284 1048h-198q-169 0 -303.5 -89t-209.5 -248t-75 -359z" />
<glyph unicode="&#x153;" horiz-adv-x="1728" d="M59 360q0 137 56.5 282t156.5 245q157 157 381 157q233 0 322 -180q76 87 185.5 133.5t223.5 46.5q62 0 115.5 -14.5t97 -44.5t68.5 -81.5t25 -119.5q0 -13 -1.5 -25.5t-10.5 -41.5t-26 -54t-52.5 -56.5t-83.5 -55.5q-160 -82 -437 -82h-63q-8 -33 -8 -61 q0 -120 54.5 -178t154.5 -58q52 0 112 15.5t108 37.5t89 44t64 37l22 16l-53 -226q-7 -5 -20 -12.5t-55 -27.5t-85.5 -35.5t-107.5 -28t-126 -12.5q-239 0 -340 178q-61 -79 -166 -128.5t-227 -49.5q-171 0 -272 98.5t-101 281.5zM295 350q0 -103 40.5 -143.5t129.5 -40.5 q56 0 98.5 15t68 36.5t47 60.5t32 70t27.5 84.5t30 85.5h9q9 0 11 12q19 84 19 138q0 97 -44.5 141.5t-117.5 44.5q-79 0 -146.5 -47.5t-111 -122.5t-68 -162.5t-24.5 -171.5zM1079 637q133 0 240 29q77 22 114 56.5t37 74.5q0 36 -29 54.5t-73 18.5q-86 0 -166.5 -63.5 t-122.5 -169.5z" />
<glyph unicode="&#x178;" horiz-adv-x="1402" d="M188 1262l48 172h632l-47 -172h-203l150 -543l428 543h-186l47 172h602l-47 -172h-178l-594 -723l-97 -359h215l-47 -180h-669l47 180h213l96 359l-219 723h-191zM602 1575l76 283h262l-76 -283h-262zM1016 1575l76 283h264l-76 -283h-264z" />
<glyph unicode="&#x2c6;" horiz-adv-x="884" d="M348 1241l387 367h144l186 -418l-174 -51l-121 241l-297 -247z" />
<glyph unicode="&#x2dc;" horiz-adv-x="835" d="M281 1202q12 59 32.5 103.5t43.5 70t51 41t51 20.5t47 5q50 0 98 -23t87.5 -46t68.5 -23q25 0 39 21.5t24 84.5l160 -49q-8 -76 -30.5 -129t-54.5 -78.5t-63 -36t-67 -10.5q-52 0 -103 22t-89 44t-60 22q-57 0 -78 -102z" />
<glyph unicode="&#x2000;" horiz-adv-x="1011" />
<glyph unicode="&#x2001;" horiz-adv-x="2023" />
<glyph unicode="&#x2002;" horiz-adv-x="1011" />
<glyph unicode="&#x2003;" horiz-adv-x="2023" />
<glyph unicode="&#x2004;" horiz-adv-x="674" />
<glyph unicode="&#x2005;" horiz-adv-x="505" />
<glyph unicode="&#x2006;" horiz-adv-x="337" />
<glyph unicode="&#x2007;" horiz-adv-x="337" />
<glyph unicode="&#x2008;" horiz-adv-x="252" />
<glyph unicode="&#x2009;" horiz-adv-x="404" />
<glyph unicode="&#x200a;" horiz-adv-x="112" />
<glyph unicode="&#x2010;" horiz-adv-x="935" d="M117 571l55 201h723l-55 -201h-723z" />
<glyph unicode="&#x2011;" horiz-adv-x="935" d="M117 571l55 201h723l-55 -201h-723z" />
<glyph unicode="&#x2012;" horiz-adv-x="935" d="M117 571l55 201h723l-55 -201h-723z" />
<glyph unicode="&#x2013;" horiz-adv-x="1417" d="M117 571l55 201h1204l-55 -201h-1204z" />
<glyph unicode="&#x2014;" horiz-adv-x="2078" d="M117 571l55 201h1866l-56 -201h-1865z" />
<glyph unicode="&#x2018;" horiz-adv-x="583" d="M164 748l80 301l307 385h188l-217 -342h84l-92 -344h-350z" />
<glyph unicode="&#x2019;" horiz-adv-x="565" d="M152 748l219 342h-86l92 344h350l-80 -301l-307 -385h-188z" />
<glyph unicode="&#x201a;" horiz-adv-x="608" d="M-139 -342l217 342h-84l92 344h350l-80 -301l-307 -385h-188z" />
<glyph unicode="&#x201c;" horiz-adv-x="1046" d="M164 748l80 301l307 385h188l-217 -342h84l-92 -344h-350zM627 748l80 301l307 385h188l-217 -342h86l-92 -344h-352z" />
<glyph unicode="&#x201d;" horiz-adv-x="1030" d="M152 748l219 342h-86l92 344h350l-80 -301l-307 -385h-188zM616 748l218 342h-86l92 344h352l-80 -301l-307 -385h-189z" />
<glyph unicode="&#x201e;" horiz-adv-x="1071" d="M-139 -342l217 342h-84l92 344h350l-80 -301l-307 -385h-188zM326 -342l217 342h-86l92 344h350l-80 -301l-307 -385h-186z" />
<glyph unicode="&#x2022;" horiz-adv-x="856" d="M137 721q0 138 98.5 236t239.5 98t240.5 -98t99.5 -236t-99.5 -235t-240.5 -97t-239.5 97t-98.5 235z" />
<glyph unicode="&#x2026;" horiz-adv-x="1947" d="M-6 0l92 344h348l-92 -344h-348zM664 0l92 344h352l-92 -344h-352zM1335 0l92 344h349l-93 -344h-348z" />
<glyph unicode="&#x202f;" horiz-adv-x="404" />
<glyph unicode="&#x2039;" horiz-adv-x="735" d="M37 557l12 45l492 422h290l-528 -485l215 -539h-229z" />
<glyph unicode="&#x203a;" horiz-adv-x="745" d="M-82 0l514 498l-242 526h232l293 -524l-13 -45l-509 -455h-275z" />
<glyph unicode="&#x205f;" horiz-adv-x="505" />
<glyph unicode="&#x20ac;" horiz-adv-x="1499" d="M68 453l43 159h204q5 79 29 179h-186l43 159h192q85 218 251.5 361t377.5 143q186 0 254 -115l31 95h178l-113 -488l-196 -8q10 84 10 92q0 28 -0.5 44t-3.5 45t-9 46.5t-18.5 39.5t-30 34.5t-44.5 21.5t-62 9q-121 0 -220.5 -91t-158.5 -229h424l-43 -159h-434 q-24 -91 -27 -179h414l-43 -159h-365q22 -138 101 -202.5t200 -64.5q73 0 151 23t138 55.5t109 65t76 55.5l26 23l-25 -232q-7 -8 -20.5 -21t-62 -47t-103 -60t-143.5 -47t-185 -21q-235 0 -366 120.5t-148 352.5h-245z" />
<glyph unicode="&#x2122;" horiz-adv-x="2582" d="M219 485l43 156h205l170 635h-158l-88 -209h-164l99 367h917l-98 -367h-164l23 209h-162l-170 -635h207l-43 -156h-617zM1141 485l43 156h186l170 635h-186l43 158h465l84 -406l321 406h447l-43 -158h-187l-170 -635h187l-43 -156h-580l43 156h190l146 543l-283 -363 h-172l-84 367l-145 -547h190l-43 -156h-579z" />
<glyph unicode="&#xe000;" horiz-adv-x="1034" d="M0 0v1034h1034v-1034h-1034z" />
</font>
</defs>
</svg>
