<?xml version="1.0" standalone="no"?>
<!DOCTYPE svg PUBLIC "-//W3C//DTD SVG 1.1//EN" "http://www.w3.org/Graphics/SVG/1.1/DTD/svg11.dtd" >
<svg xmlns="http://www.w3.org/2000/svg">
<metadata></metadata>
<defs>
<font id="outsiderslight" horiz-adv-x="1384" >
<font-face units-per-em="2048" ascent="1536" descent="-512" />
<missing-glyph horiz-adv-x="481" />
<glyph unicode="&#xfb01;" horiz-adv-x="1267" d="M68 0v76h174v852h-174v76h174v126q0 114 35 200.5t95 135.5t132 73t155 24q78 0 145 -21t120.5 -64t84.5 -115.5t31 -168.5h-96q0 141 -75.5 213t-219.5 72q-148 0 -229.5 -90.5t-81.5 -258.5v-126h702v-928h191v-76h-477v76h190v852h-606v-852h231v-76h-501z" />
<glyph unicode="&#xfb02;" horiz-adv-x="1304" d="M68 0v76h174v852h-174v76h174v126q0 114 35.5 200.5t96 135.5t133 73t155.5 24q84 0 154.5 -20.5t131 -66t95 -128.5t34.5 -197v-1075h191v-76h-477v76h190v1075q0 328 -319 328q-161 0 -242.5 -89.5t-81.5 -259.5v-126h340v-76h-340v-852h231v-76h-501z" />
<glyph horiz-adv-x="2048" />
<glyph horiz-adv-x="2048" />
<glyph unicode="&#xd;" horiz-adv-x="2048" />
<glyph unicode=" "  horiz-adv-x="481" />
<glyph unicode="&#x09;" horiz-adv-x="481" />
<glyph unicode="&#xa0;" horiz-adv-x="481" />
<glyph unicode="!" horiz-adv-x="546" d="M166 0v256h215v-256h-215zM186 1434h174l-41 -992h-92z" />
<glyph unicode="&#x22;" horiz-adv-x="731" d="M129 870v564h133l-57 -564h-76zM500 870v564h133l-58 -564h-75z" />
<glyph unicode="#" horiz-adv-x="1265" d="M66 502l10 80h246l57 252h-244l12 79h248l113 521h82l-111 -521h389l113 521h84l-113 -521h248l-14 -79h-248l-57 -252h245l-10 -80h-248l-112 -502h-82l108 502h-387l-114 -502h-84l114 502h-245zM408 582h387l57 252h-389z" />
<glyph unicode="$" horiz-adv-x="1079" d="M106 1065q0 86 30 151.5t84.5 107t121 64.5t147.5 31v223h80v-219q203 0 363 -67v-289h-78l-18 240q-89 39 -267 43v-598q174 -54 245 -92q157 -85 173 -237q2 -18 2 -38q0 -169 -105 -274t-315 -125v-246h-80v240h-20q-100 0 -190 20t-130 40l-40 19v293h79l17 -239 q110 -58 276 -58h8v631q-48 15 -83 27.5t-77.5 32t-72.5 39.5t-60 48.5t-48.5 61t-30 76t-11.5 94.5zM195 1069q0 -62 22 -110t66 -82t91 -56.5t115 -44.5v570q-132 -11 -213 -79t-81 -198zM569 59q149 16 238.5 94.5t89.5 219.5q0 87 -44 142t-128 93q-79 34 -156 56v-605z " />
<glyph unicode="%" horiz-adv-x="1419" d="M96 1098q0 156 72.5 240.5t177.5 84.5q106 0 179 -84.5t73 -240.5t-73.5 -241t-178.5 -85t-177.5 85t-72.5 241zM119 29l1143 1425l59 -49l-1139 -1425zM182 1098q0 -121 46 -185.5t118 -64.5q74 0 120 64.5t46 185.5t-46 185.5t-120 64.5q-72 0 -118 -64.5t-46 -185.5z M817 305q0 156 72.5 241t177.5 85t178.5 -85t73.5 -241t-73.5 -242t-178.5 -86t-177.5 86t-72.5 242zM903 305q0 -122 45.5 -186t118.5 -64q74 0 120 63.5t46 186.5q0 121 -46 185.5t-120 64.5q-72 0 -118 -64.5t-46 -185.5z" />
<glyph unicode="&#x26;" horiz-adv-x="1611" d="M78 303q0 40 9 78.5t20.5 69t36 64.5t41 55.5t51 51t50 42.5t54.5 39l48 32t46 29q-131 126 -185 218t-54 200q0 109 83 190.5t240 81.5q70 0 124.5 -17t88 -43.5t55.5 -62t30.5 -70.5t8.5 -71q0 -61 -22.5 -112t-54.5 -80.5t-63.5 -50.5t-54.5 -29l-22 -7l-63 50 q8 2 21 7t46 23.5t58 41t46 63t21 86.5q0 81 -55.5 136.5t-167.5 55.5q-62 0 -107.5 -17.5t-71 -47t-37 -63.5t-11.5 -72q0 -139 129 -265l563 -542q161 197 309 485h-293v76h557v-76h-153q-11 0 -55.5 -79t-130.5 -217t-177 -245q62 -60 106.5 -97.5t105 -77.5t127 -60.5 t141.5 -24.5l-58 -74q-118 4 -228.5 67.5t-254.5 201.5q-59 -62 -111.5 -106t-118 -82.5t-142 -58t-163.5 -19.5q-176 0 -269 90.5t-93 232.5zM174 313q0 -123 74.5 -187.5t208.5 -64.5q232 0 463 238l-422 406q-324 -184 -324 -392z" />
<glyph unicode="'" horiz-adv-x="360" d="M129 870v564h133l-57 -564h-76z" />
<glyph unicode="(" horiz-adv-x="555" d="M92 688q0 101 19.5 206.5t50 193t68 169.5t75 144t68 109t49.5 72l20 24l82 -41q-13 -17 -35.5 -47t-79.5 -125.5t-100.5 -193t-79.5 -238.5t-36 -273t34 -270.5t82.5 -242.5t97.5 -189t83 -130l34 -44l-82 -41q-7 9 -20 25t-49 69.5t-69 110.5t-73.5 142.5t-69.5 171 t-49 191.5t-20 207z" />
<glyph unicode=")" horiz-adv-x="552" d="M31 -188q7 8 19 24t46.5 67t65.5 105.5t69 136.5t65.5 163.5t46.5 182.5t19 197t-18.5 196.5t-47.5 184t-64 162t-70.5 138t-64.5 104.5t-47 69l-19 23l82 41q7 -9 20 -25t49 -70t69 -110.5t73.5 -142.5t69.5 -171.5t49 -191.5t20 -207q0 -139 -36 -284.5t-87.5 -254 t-103 -197t-87.5 -134.5l-36 -47z" />
<glyph unicode="*" horiz-adv-x="1036" d="M88 1108l39 102l358 -157l-24 401h114l-24 -401l358 157l39 -102l-377 -115l303 -334l-90 -67l-266 352l-266 -352l-90 67l303 334z" />
<glyph unicode="+" horiz-adv-x="1069" d="M76 659v76h416v424h81v-424h420v-76h-420v-426h-81v426h-416z" />
<glyph unicode="," horiz-adv-x="489" d="M96 -307l127 307h-86v256h215v-256l-180 -307h-76z" />
<glyph unicode="-" horiz-adv-x="835" d="M119 584v75h598v-75h-598z" />
<glyph unicode="." horiz-adv-x="489" d="M137 0v256h215v-256h-215z" />
<glyph unicode="/" horiz-adv-x="1011" d="M35 -182l844 1738l79 -28l-841 -1749z" />
<glyph unicode="0" horiz-adv-x="1187" d="M137 702q0 177 35.5 317t98.5 227.5t145 133t178 45.5q95 0 177 -45.5t145 -133t99 -227.5t36 -317q0 -176 -36 -315.5t-99 -227.5t-145 -133.5t-177 -45.5q-96 0 -178 45.5t-144.5 133.5t-98.5 227.5t-36 315.5zM233 702q0 -311 100 -477t261 -166q160 0 259 166t99 477 q0 316 -98.5 480t-259.5 164q-163 0 -262 -164t-99 -480z" />
<glyph unicode="1" horiz-adv-x="968" d="M96 1135v94l432 194h54v-1347h350v-76h-813v76h366v1237z" />
<glyph unicode="2" horiz-adv-x="1097" d="M104 0v72l371 399q121 131 183.5 203t115 147t70.5 131t18 121q0 73 -24 127t-66 83.5t-91.5 43.5t-107.5 14q-104 0 -185.5 -42t-135.5 -105l-12 -258h-84v471h75l15 -123q139 139 346 139q100 0 181.5 -36t134.5 -116.5t53 -193.5q0 -70 -20.5 -134.5t-74 -140 t-94 -122.5t-129.5 -144q-10 -12 -16 -18l-406 -442h776v-76h-893z" />
<glyph unicode="3" horiz-adv-x="1040" d="M94 35q25 -2 76 -2q131 0 244 24t205 73t145 133t53 194q0 74 -29 132t-79.5 93t-113 52.5t-134.5 17.5q-103 0 -199 -21v70l516 526h-682v76h795v-66l-506 -510q9 0 35.5 1t36.5 1q214 0 334 -98t120 -278q0 -104 -41 -188.5t-111.5 -141t-167 -95t-203.5 -56 t-226 -17.5l-47 2z" />
<glyph unicode="4" horiz-adv-x="1163" d="M53 389v76l557 958h101l-559 -960h616v428h90v-428h258v-74h-258v-389h-90v389h-715z" />
<glyph unicode="5" horiz-adv-x="1040" d="M109 37q25 -2 75 -2q115 0 222 24t200.5 72t150 132.5t56.5 193.5q0 307 -389 307q-112 0 -260 -37l-35 33l102 643h689v-76h-623l-78 -510q33 9 98.5 18t114.5 9q231 0 354 -96.5t123 -288.5q0 -103 -42.5 -188.5t-114 -143t-166.5 -97t-198 -57.5t-212 -18l-47 2z" />
<glyph unicode="6" horiz-adv-x="1126" d="M121 518q0 142 53.5 280.5t133 242.5t176 192.5t177.5 141.5t144 79l125 -20q-37 -13 -91 -42.5t-123 -74.5t-140.5 -108t-136.5 -134.5t-118.5 -162.5t-80.5 -185q65 54 160.5 85.5t205.5 31.5q129 0 228 -59t149.5 -153t50.5 -206q0 -67 -16 -130.5t-51 -121 t-86 -100.5t-127 -68.5t-168 -25.5q-152 0 -258.5 72t-156.5 191.5t-50 274.5zM211 508q0 -69 12 -132.5t41 -123t71.5 -103t108.5 -70t148 -26.5q115 0 195 50t116.5 130.5t36.5 184.5q0 153 -92 251.5t-256 98.5q-200 0 -369 -119q-12 -86 -12 -141z" />
<glyph unicode="7" horiz-adv-x="1044" d="M76 1094v309h954v-64l-43 -59q-163 -225 -268.5 -410t-184 -401.5t-122.5 -468.5h-101q73 371 203 651.5t360 603.5l52 72h-750l-20 -233h-80z" />
<glyph unicode="8" horiz-adv-x="1193" d="M127 342q0 62 21 116t54 93.5t83 75t98 59t109 47.5q-318 137 -318 363q0 154 119 241.5t305 87.5q183 0 300.5 -86.5t117.5 -240.5q0 -66 -25.5 -122t-73.5 -99.5t-98.5 -75t-118.5 -62.5q63 -27 108.5 -49.5t98 -59t85.5 -74.5t55 -92.5t22 -117.5q0 -93 -40 -165.5 t-108 -115t-150.5 -64t-174.5 -21.5q-94 0 -176.5 21t-149 63.5t-105 113.5t-38.5 164zM217 342q0 -141 102.5 -212t278.5 -71q171 0 274 71t103 212q0 58 -22 107.5t-56.5 85t-87 67t-101.5 52.5t-112 42q-84 -26 -147.5 -55t-118.5 -71t-84 -99.5t-29 -128.5zM264 1092 q0 -49 18.5 -91t46.5 -72t75.5 -59.5t89 -49t104.5 -44.5q58 23 100 42.5t88.5 49t75.5 60t48.5 73t19.5 91.5q0 126 -90 192t-242 66q-155 0 -244.5 -66t-89.5 -192z" />
<glyph unicode="9" horiz-adv-x="1126" d="M92 977q0 85 26.5 162.5t78.5 142t141 103t203 38.5q152 0 258.5 -72t156.5 -191.5t50 -274.5q0 -142 -53.5 -280.5t-133 -242.5t-176 -192.5t-177.5 -141.5t-144 -79l-125 20q37 13 91 42.5t123 74.5t140.5 108t136.5 134.5t118.5 162.5t80.5 185q-65 -54 -161 -85.5 t-206 -31.5q-129 0 -228 59t-149.5 153t-50.5 206zM186 985q0 -153 92.5 -251.5t256.5 -98.5q199 0 368 119q12 86 12 141q0 69 -12 132.5t-40.5 123t-71 103t-108.5 70t-148 26.5q-115 0 -195.5 -50t-117 -131t-36.5 -184z" />
<glyph unicode=":" horiz-adv-x="563" d="M174 0v256h215v-256h-215zM174 705v256h215v-256h-215z" />
<glyph unicode=";" horiz-adv-x="563" d="M133 -307l127 307h-86v256h215v-256l-180 -307h-76zM174 705v256h215v-256h-215z" />
<glyph unicode="&#x3c;" horiz-adv-x="1593" d="M61 707v18l646 649h118l-618 -618h1292v-80h-1292l618 -619h-118z" />
<glyph unicode="=" horiz-adv-x="909" d="M139 496v75h631v-75h-631zM139 823v76h631v-76h-631z" />
<glyph unicode="&#x3e;" horiz-adv-x="1593" d="M94 676v80h1292l-618 618h119l645 -649v-18l-645 -650h-119l618 619h-1292z" />
<glyph unicode="?" horiz-adv-x="870" d="M86 1075v363h72l8 -109q48 56 125 90.5t168 34.5q140 0 224.5 -78t84.5 -207q0 -73 -32.5 -149.5t-80.5 -144.5t-97 -135.5t-87.5 -146t-46.5 -151.5h-86q11 89 49.5 174.5t84.5 152t91 130t75 131.5t30 133q0 99 -60 154t-168 55q-88 0 -159 -38.5t-115 -110.5v-148h-80 zM276 0v256h216v-256h-216z" />
<glyph unicode="@" horiz-adv-x="2060" d="M94 514q0 217 78 396t212 297t313 182.5t382 64.5q140 0 267.5 -31t240 -98t195 -164t130.5 -236.5t48 -308.5q0 -157 -41 -282t-109.5 -200.5t-152 -114.5t-174.5 -39q-80 0 -133.5 42.5t-59.5 137.5q-166 -180 -405 -180q-119 0 -189.5 67.5t-70.5 181.5q0 55 21.5 100 t56 77t88.5 57t106.5 40t124.5 26.5t128 17t130 10.5v139q0 134 -55.5 190t-182.5 56q-60 0 -128.5 -16t-120.5 -41l-11 -213h-77v334h65l12 -45q142 63 277 63q317 0 317 -313v-486q0 -33 1.5 -53t7 -44.5t17 -38t32.5 -23t51 -9.5q76 0 144 34.5t122 100t85.5 172.5 t31.5 242q0 156 -44.5 286t-120 218.5t-177.5 150t-216 89.5t-237 28q-142 0 -273.5 -36.5t-242.5 -109t-193.5 -173t-129 -236.5t-46.5 -291q0 -187 47.5 -340t129 -256.5t192 -174t233.5 -102.5t257 -32q408 0 712 191l-14 -88q-176 -109 -351 -145t-390 -36 q-148 0 -284.5 42.5t-250 125.5t-197.5 198.5t-131 269t-47 329.5zM723 231q0 -84 47 -128t131 -44q117 0 213.5 50t165.5 137v235q-225 -18 -327 -44q-230 -60 -230 -206z" />
<glyph unicode="A" horiz-adv-x="1503" d="M10 0v76h230l378 1282h-239v76h493l402 -1358h227v-76h-561v76h231l-155 538h-524l-154 -538h231v-76h-559zM514 690h479l-190 668h-96z" />
<glyph unicode="B" horiz-adv-x="1361" d="M80 0v76h231v1282h-231v76h659q181 0 284 -88.5t103 -241.5q0 -226 -213 -359q69 -14 127.5 -41t109 -70t79 -110t28.5 -151q0 -154 -110 -263.5t-297 -109.5h-770zM408 76h426q156 0 241.5 84.5t85.5 228.5q0 130 -105.5 213.5t-264.5 83.5h-383v-610zM408 762h409 q105 61 159 140.5t54 189.5q0 126 -78.5 196t-261.5 70h-282v-596z" />
<glyph unicode="C" horiz-adv-x="1310" d="M133 702q0 181 42.5 325.5t117.5 236.5t173.5 141t213.5 49q140 0 235.5 -59t137.5 -144l22 203h76v-426h-76q-8 42 -25 86t-48.5 92.5t-72.5 85.5t-103 61.5t-134 24.5q-211 0 -338 -173.5t-127 -497.5q0 -163 36.5 -288.5t103 -202.5t154 -116t194.5 -39q80 0 160 18.5 t136.5 44.5t101 52.5t67.5 45.5l22 18l-18 -119q-8 -6 -23 -15.5t-64 -33.5t-102 -43t-133.5 -34t-161.5 -15q-124 0 -226.5 44t-179 131t-119 226.5t-42.5 320.5z" />
<glyph unicode="D" horiz-adv-x="1484" d="M80 0v76h231v1282h-231v76h637q105 0 197 -24.5t173.5 -79.5t140 -136.5t92.5 -203.5t34 -273t-35 -273t-94.5 -203.5t-143 -136.5t-176.5 -79.5t-198 -24.5h-627zM408 76h278q267 0 420.5 158.5t153.5 482.5q0 166 -41.5 290t-118.5 200t-181 113.5t-235 37.5h-276 v-1282z" />
<glyph unicode="E" horiz-adv-x="1351" d="M80 0v76h231v1282h-231v76h1091l27 -314h-76l-30 238h-684v-594h399v211h92v-498h-92v211h-399v-612h745l31 237h76l-27 -313h-1153z" />
<glyph unicode="F" horiz-adv-x="1234" d="M80 0v76h231v1282h-231v76h1071l27 -314h-76l-31 238h-663v-615h419v191h93v-477h-93v211h-419v-592h266v-76h-594z" />
<glyph unicode="G" horiz-adv-x="1398" d="M133 702q0 181 42.5 325.5t117.5 236.5t173.5 141t213.5 49q140 0 235.5 -59t137.5 -144l22 203h76v-426h-76q-8 42 -25 86t-48.5 92.5t-72.5 85.5t-103 61.5t-134 24.5q-211 0 -338 -173.5t-127 -497.5q0 -163 36 -288t102 -202.5t154 -116.5t196 -39q65 0 130.5 10.5 t112.5 25.5t85 30.5t57 26.5l20 10v436h-375v76h621v-76h-149v-475q-114 -75 -234.5 -110t-282.5 -35q-124 0 -226.5 44t-179 131t-119 226.5t-42.5 320.5z" />
<glyph unicode="H" horiz-adv-x="1609" d="M80 0v76h231v1282h-231v76h559v-76h-231v-594h794v594h-231v76h559v-76h-232v-1282h232v-76h-559v76h231v612h-794v-612h231v-76h-559z" />
<glyph unicode="I" horiz-adv-x="718" d="M80 0v76h231v1282h-231v76h559v-76h-231v-1282h231v-76h-559z" />
<glyph unicode="J" horiz-adv-x="1247" d="M121 1077q0 169 117 263t309 94h620v-76h-211v-930q0 -98 -25.5 -177.5t-79 -141t-144 -95.5t-211.5 -34q-72 0 -136 9.5t-104.5 22.5t-70.5 26t-43 22l-13 10l16 92q5 -4 14.5 -11t43 -24.5t72 -30.5t100 -24t127.5 -11q358 0 358 375v922h-307q-153 0 -245.5 -68.5 t-92.5 -212.5q0 -117 74.5 -189t193.5 -95l-43 -68q-148 29 -233.5 122.5t-85.5 229.5z" />
<glyph unicode="K" horiz-adv-x="1482" d="M80 0v76h231v1282h-231v76h586v-76h-258v-594h245l490 594h-234v76h535v-76h-195l-520 -623q81 -34 136 -89.5t106 -137.5l270 -432h191v-76h-261l-272 449q-71 117 -142 178t-159 61h-190v-612h258v-76h-586z" />
<glyph unicode="L" horiz-adv-x="1247" d="M80 0v76h231v1282h-231v76h579v-76h-251v-1282h684l30 237h76l-27 -313h-1091z" />
<glyph unicode="M" horiz-adv-x="1855" d="M80 0v76h231v1282h-231v76h364l484 -916l487 916h361v-76h-232v-1282h232v-76h-559v76h231v1235l-479 -885h-86l-475 885v-1235h231v-76h-559z" />
<glyph unicode="N" horiz-adv-x="1630" d="M80 0v76h231v1282h-231v76h350l803 -1317v1241h-232v76h553v-76h-231v-1358h-119l-803 1313v-1237h252v-76h-573z" />
<glyph unicode="O" d="M133 717q0 180 44 322.5t121 232t177 136t217 46.5t217.5 -46.5t178 -136t121.5 -232t44 -322.5t-44 -322.5t-121.5 -232t-178 -136t-217.5 -46.5t-217 46.5t-177 136t-121 232t-44 322.5zM227 717q0 -311 131.5 -485.5t333.5 -174.5q98 0 182 43.5t148 124.5t100.5 208 t36.5 284t-36.5 283t-100.5 206.5t-148 123t-182 42.5t-182 -42.5t-147.5 -123t-99.5 -206.5t-36 -283z" />
<glyph unicode="P" horiz-adv-x="1214" d="M80 0v76h231v1282h-231v76h635q185 0 298 -111.5t113 -286.5q0 -177 -119.5 -294t-314.5 -117h-284v-549h258v-76h-586zM408 700h274q163 0 256.5 89.5t93.5 242.5q0 150 -92.5 238t-237.5 88h-294v-658z" />
<glyph unicode="Q" horiz-adv-x="1382" d="M131 717q0 180 44 322.5t121 232t177 136t217 46.5t217.5 -46.5t178 -136t121.5 -232t44 -322.5q0 -408 -217 -608l217 -259l-65 -57l-221 262q-121 -75 -275 -75q-117 0 -217 46.5t-177 136t-121 232t-44 322.5zM225 717q0 -311 131.5 -485.5t333.5 -174.5q118 0 219 66 l-288 344l69 59l287 -348q83 86 131.5 223t48.5 316q0 157 -36.5 283t-100.5 206.5t-148 123t-182 42.5t-182 -42.5t-147.5 -123t-99.5 -206.5t-36 -283z" />
<glyph unicode="R" horiz-adv-x="1468" d="M80 0v76h231v1282h-231v76h690q187 0 299.5 -106.5t112.5 -280.5q0 -142 -100 -246t-261 -127q91 -37 205 -203l270 -395h211v-76h-280l-271 412q-79 120 -145 179.5t-152 59.5h-251v-575h258v-76h-586zM408 727h309q100 0 183 37t135 111t52 172q0 148 -91 229.5 t-238 81.5h-350v-631z" />
<glyph unicode="S" horiz-adv-x="1157" d="M141 1087q0 79 26 142.5t70.5 104.5t106 68.5t128.5 39.5t142 12q206 0 369 -70v-294h-80l-18 245q-97 43 -283 43q-77 0 -141 -15t-117 -47t-83 -89t-30 -135q0 -67 27.5 -119t74.5 -85.5t107.5 -59.5t128 -46.5t134.5 -42t127.5 -50.5t107.5 -66.5t74.5 -96 t27.5 -133.5q0 -192 -132.5 -302.5t-395.5 -110.5q-64 0 -125.5 8.5t-104 20t-75 23.5t-48.5 20l-16 9v299h82l17 -245q113 -58 282 -58q189 0 306.5 80.5t117.5 243.5q0 89 -45 145.5t-131 94.5q-49 22 -128.5 47t-142 43t-133 51t-117.5 71.5t-78.5 104t-31.5 149.5z" />
<glyph unicode="T" horiz-adv-x="1304" d="M55 1120l27 314h1141l26 -314h-75l-31 238h-443v-1282h252v-76h-600v76h252v1282h-442l-31 -238h-76z" />
<glyph unicode="U" horiz-adv-x="1650" d="M66 1358v76h579v-76h-252v-840q0 -107 24 -189t63.5 -132t96.5 -81t117 -43t131 -12t131 12t117 43t96.5 81t63.5 132t24 189v840h-251v76h579v-76h-231v-842q0 -126 -29 -221.5t-76.5 -154.5t-117.5 -95.5t-143.5 -50.5t-162.5 -14q-63 0 -117.5 6.5t-109 23.5 t-98.5 43.5t-82.5 68t-64.5 96t-41 129t-15 165.5v846h-231z" />
<glyph unicode="V" horiz-adv-x="1499" d="M4 1358v76h561v-76h-231l368 -1282h97l368 1282h-231v76h559v-76h-231l-394 -1358h-243l-391 1358h-232z" />
<glyph unicode="W" horiz-adv-x="2347" d="M4 1358v76h561v-76h-231l368 -1282h56l342 1282h-207v76h561v-76h-205l342 -1282h56l368 1282h-231v76h559v-76h-232l-393 -1358h-202l-342 1303l-345 -1303h-202l-391 1358h-232z" />
<glyph unicode="X" horiz-adv-x="1495" d="M39 0v76h231l420 645l-405 637h-232v76h580v-76h-234l349 -565l360 565h-231v76h569v-76h-227l-416 -637l420 -645h231v-76h-580v76h232l-361 571l-362 -571h231v-76h-575z" />
<glyph unicode="Y" horiz-adv-x="1462" d="M2 1358v76h539v-76h-224l418 -744l420 744h-229v76h534v-76h-207l-471 -826v-456h232v-76h-559v76h231v456l-477 826h-207z" />
<glyph unicode="Z" horiz-adv-x="1292" d="M94 0v66l955 1292h-828l-14 -238h-76l4 314h1022v-66l-950 -1292h878l31 237h76l-27 -313h-1071z" />
<glyph unicode="[" horiz-adv-x="565" d="M184 -184v1753h449v-76h-352v-1602h352v-75h-449z" />
<glyph unicode="\" horiz-adv-x="1011" d="M53 1528l80 28l844 -1738l-82 -39z" />
<glyph unicode="]" horiz-adv-x="565" d="M-68 -109h353v1602h-353v76h449v-1753h-449v75z" />
<glyph unicode="^" horiz-adv-x="927" d="M82 539l324 895h116l324 -895h-98l-285 825l-283 -825h-98z" />
<glyph unicode="_" horiz-adv-x="704" d="M33 -197h639v-75h-639v75z" />
<glyph unicode="`" horiz-adv-x="681" d="M82 1448l88 57l430 -323l-57 -47z" />
<glyph unicode="a" horiz-adv-x="1028" d="M82 238q0 56 21 102t55 78t86 56.5t106 39t123.5 24t130 13.5t133.5 6v139q0 134 -56 190t-183 56q-108 0 -232 -53l-12 -209h-78v344h66l10 -57q121 57 264 57q318 0 318 -313v-486q0 -36 1 -55t6.5 -44.5t16 -38t30.5 -21.5t50 -9q69 0 109 21l-5 -74q-58 -24 -127 -24 q-50 0 -85.5 17t-53 45.5t-24.5 57t-7 60.5q-70 -86 -158.5 -133t-217.5 -47q-127 0 -207 72t-80 186zM180 246q0 -85 55.5 -136t147.5 -51q117 0 202 49t152 142v231q-89 -4 -139.5 -8t-135 -18t-140.5 -37q-142 -56 -142 -172z" />
<glyph unicode="b" horiz-adv-x="1187" d="M-18 1399v76h290v-668q55 104 151 160.5t216 56.5q197 0 321.5 -142t124.5 -378q0 -240 -127.5 -382t-326.5 -142q-126 0 -222 61t-149 172v-213h-84v1399h-194zM266 502q0 -214 104 -328.5t261 -114.5q156 0 257 114t101 329q0 214 -101.5 328t-258.5 114t-260 -114 t-103 -328z" />
<glyph unicode="c" horiz-adv-x="1007" d="M104 500q0 251 120.5 387.5t303.5 136.5q87 0 159.5 -37t105.5 -94l16 131h68v-322h-74q-12 36 -24 65.5t-35 64t-50 57.5t-68.5 39t-90.5 16q-144 0 -239 -111.5t-95 -324.5q0 -216 102.5 -331.5t263.5 -115.5q60 0 117.5 12.5t97.5 29.5t71.5 34.5t46.5 30.5l15 12 l-8 -102q-6 -4 -16.5 -10.5t-46 -23.5t-74 -30t-98.5 -23.5t-121 -10.5q-94 0 -174.5 32.5t-142 95.5t-96 163.5t-34.5 228.5z" />
<glyph unicode="d" horiz-adv-x="1228" d="M102 500q0 240 128 382t327 142q118 0 210 -54.5t148 -154.5v584h-194v76h291v-1399h190v-76h-287v197q-55 -104 -150.5 -160.5t-215.5 -56.5q-198 0 -322.5 142t-124.5 378zM199 502q0 -215 102 -329t258 -114q157 0 260 114.5t103 328.5t-104 328t-261 114 q-156 0 -257 -113.5t-101 -328.5z" />
<glyph unicode="e" horiz-adv-x="1032" d="M104 500q0 127 34.5 228.5t94.5 165t137 97t165 33.5q174 0 273 -108t99 -316v-78h-706v-14q0 -216 102.5 -331.5t263.5 -115.5q60 0 120 12.5t102.5 29.5t77 34.5t51.5 30.5l18 12l-8 -102q-6 -4 -18 -10.5t-51 -23.5t-80.5 -30t-104 -23.5t-123.5 -10.5 q-94 0 -174.5 32.5t-142 95.5t-96 163.5t-34.5 228.5zM205 598h612q0 180 -74.5 264t-203.5 84q-135 0 -226 -88.5t-108 -259.5z" />
<glyph unicode="f" horiz-adv-x="696" d="M68 0v76h194v852h-194v76h194v161q0 162 85.5 249t234.5 87q76 0 144.5 -17.5t99.5 -34.5l30 -17l-31 -80q-4 3 -11 7.5t-31 16t-50.5 20.5t-67.5 16t-83 7q-224 0 -224 -266v-149h279v-76h-279v-852h236v-76h-526z" />
<glyph unicode="g" horiz-adv-x="1107" d="M31 -162q0 110 89.5 181t244.5 85v5q-47 2 -89 11.5t-80.5 29t-61.5 55.5t-23 84q0 114 125 172q-64 94 -64 213q0 160 102.5 256t266.5 96q187 0 288 -113l252 217l60 -67l-264 -223q36 -74 36 -166q0 -161 -103.5 -258t-268.5 -97q-160 0 -262 91q-84 -51 -84 -113 q0 -49 42 -75.5t121 -39.5q52 -8 193 -15.5t213 -19.5q68 -12 120.5 -31.5t96 -52t67 -83t23.5 -117.5q0 -66 -30.5 -122.5t-93 -104t-171.5 -74.5t-252 -27q-109 0 -195.5 18t-141.5 47t-91 69t-50.5 81.5t-14.5 87.5zM125 -154q0 -53 26.5 -95.5t67.5 -68.5t96 -43 t107 -23.5t106 -6.5q218 0 333.5 69t115.5 185q0 48 -18 84.5t-53 59t-73 36.5t-92.5 20.5t-96 8.5t-97.5 2q-63 0 -92 -2q-68 -5 -124.5 -19t-104 -40t-74.5 -68.5t-27 -98.5zM262 674q0 -128 77.5 -203.5t203.5 -75.5t203 75.5t77 203.5q0 122 -78 198t-202 76 q-125 0 -203 -76.5t-78 -197.5z" />
<glyph unicode="h" horiz-adv-x="1236" d="M41 0v76h174v1323h-174v76h270v-662q135 105 241 158t204 53q66 0 115 -18t76 -44.5t42.5 -66t20 -72.5t4.5 -73v-674h190v-76h-461v76h175v674q0 186 -160 186q-96 0 -195.5 -50.5t-251.5 -160.5v-649h191v-76h-461z" />
<glyph unicode="i" horiz-adv-x="643" d="M55 0v76h232v852h-232v76h328v-928h231v-76h-559zM260 1243v191h139v-191h-139z" />
<glyph unicode="j" horiz-adv-x="512" d="M-49 -365q12 -2 37 -2q119 0 172 70t53 201v1024h-170v76h399v-76h-133v-1043q0 -327 -303 -336h-39zM186 1243v191h140v-191h-140z" />
<glyph unicode="k" horiz-adv-x="1228" d="M35 0v76h194v1323h-194v76h291v-865h147q68 0 102 -10l287 328h-168v76h473v-76h-194l-326 -365q58 -38 137 -149l228 -338h170v-76h-240l-219 342q-26 41 -48 69.5t-55 59.5t-73 47.5t-86 16.5h-135v-459h211v-76h-502z" />
<glyph unicode="l" horiz-adv-x="636" d="M29 0v76h235v1323h-215v76h311v-1399h252v-76h-583z" />
<glyph unicode="m" horiz-adv-x="1933" d="M76 0v76h174v852h-174v76h268v-193q244 213 426 213q233 0 254 -215q239 215 428 215q66 0 115 -18t76 -44.5t42.5 -66t20 -72.5t4.5 -73v-674h191v-76h-461v76h174v674q0 186 -160 186q-99 0 -198 -51.5t-228 -159.5v-649h191v-76h-461v76h174v674q0 186 -160 186 q-99 0 -198 -51.5t-228 -159.5v-649h191v-76h-461z" />
<glyph unicode="n" horiz-adv-x="1271" d="M76 0v76h174v852h-174v76h268v-193q134 106 241 159.5t206 53.5q66 0 115 -18t76 -44.5t42.5 -66t20 -72.5t4.5 -73v-674h190v-76h-461v76h174v674q0 186 -159 186q-96 0 -195.5 -50.5t-251.5 -160.5v-649h191v-76h-461z" />
<glyph unicode="o" horiz-adv-x="1114" d="M102 502q0 236 128.5 379t326.5 143t326.5 -143t128.5 -379t-128.5 -379t-326.5 -143t-326.5 143t-128.5 379zM199 502q0 -215 101 -329t257 -114t257 114t101 329t-101 328.5t-257 113.5t-257 -113.5t-101 -328.5z" />
<glyph unicode="p" horiz-adv-x="1243" d="M37 -354h194v1282h-194v76h291v-197q55 104 150.5 160.5t215.5 56.5q198 0 322.5 -142t124.5 -378q0 -240 -128 -382t-327 -142q-119 0 -211.5 54t-146.5 154v-542h237v-76h-528v76zM322 502q0 -214 103.5 -328.5t260.5 -114.5q156 0 257 114t101 329q0 214 -101.5 328 t-258.5 114t-259.5 -114t-102.5 -328z" />
<glyph unicode="q" horiz-adv-x="1187" d="M102 500q0 240 128 382t327 142q118 0 210 -54.5t148 -154.5v209h97v-1378h194v-76h-528v76h237v551q-55 -104 -150.5 -160.5t-215.5 -56.5q-198 0 -322.5 142t-124.5 378zM199 502q0 -215 102 -329t258 -114q157 0 260 114.5t103 328.5t-104 328t-261 114 q-156 0 -257 -113.5t-101 -328.5z" />
<glyph unicode="r" horiz-adv-x="917" d="M76 0v76h174v852h-174v76h270v-189q9 8 24 22.5t60 50.5t87 63.5t96 50t96 22.5q35 0 78.5 -9t69.5 -19l26 -9v-104q-111 51 -164 51q-47 0 -103 -23.5t-101.5 -56t-85 -65t-61.5 -53t-22 -17.5v-643h252v-76h-522z" />
<glyph unicode="s" horiz-adv-x="888" d="M117 29v254h76l8 -193q90 -33 235 -33q15 0 32 1.5t51.5 6.5t64 19t58.5 34.5t46 57.5t17 84q0 56 -32.5 95t-84.5 61t-114.5 40.5t-125 40.5t-114.5 52t-84.5 84t-32.5 129q0 117 90 189.5t242 72.5q69 0 143 -16t114 -32l39 -15l-4 -232h-82v182q-114 39 -210 39 q-113 0 -174.5 -48t-61.5 -138q0 -45 20 -80t54 -57.5t77.5 -40t92 -32t97 -30t92 -37t77.5 -50t54 -72.5t20 -101q0 -130 -97 -207t-268 -77q-79 0 -158 12t-118 24z" />
<glyph unicode="t" horiz-adv-x="786" d="M18 928v76h218v380h96v-380h397l-20 -76h-377v-668q0 -199 153 -199q77 0 148 17.5t103 35.5l32 17l-6 -88q-11 -7 -33 -17.5t-95.5 -28t-154.5 -17.5q-243 0 -243 268v680h-218z" />
<glyph unicode="u" horiz-adv-x="1236" d="M29 928v76h307v-734q0 -96 46.5 -152.5t133.5 -56.5q114 0 219 61t191 167v639h-211v76h307v-928h174v-76h-270v195q-76 -96 -191.5 -155.5t-224.5 -59.5q-66 0 -116.5 19t-79 47.5t-46 68.5t-23 75t-5.5 74v664h-211z" />
<glyph unicode="v" horiz-adv-x="1228" d="M12 928v76h473v-76h-204l342 -838l344 838h-205v76h455v-76h-160l-389 -928h-97l-387 928h-172z" />
<glyph unicode="w" horiz-adv-x="1820" d="M14 928v76h473v-76h-206l274 -838l281 838h-154v76h455v-76h-164l289 -838l276 838h-207v76h475v-76h-180l-319 -928h-97l-307 905l-303 -905h-96l-318 928h-172z" />
<glyph unicode="x" horiz-adv-x="1241" d="M43 0v76h162l356 438l-342 414h-156v76h490v-76h-223l301 -365l291 365h-234v76h490v-76h-156l-344 -422l358 -430h162v-76h-455v76h183l-316 379l-303 -379h191v-76h-455z" />
<glyph unicode="y" horiz-adv-x="1210" d="M14 928v76h453v-76h-203l346 -813l330 813h-197v76h455v-76h-160l-370 -885q-86 -203 -130 -277q-90 -150 -212 -195q-62 -22 -138 -22q-44 0 -83 6.5t-55 12.5l-17 6l-2 84q62 -31 166 -31q43 0 82.5 14.5t69.5 35.5t59.5 56t48.5 62.5t40 69.5t30.5 64t23.5 57l10 26 l-399 916h-148z" />
<glyph unicode="z" horiz-adv-x="1079" d="M90 0v70l750 858h-617l-10 -260h-86v336h823v-72l-745 -856h663l27 239h88l-20 -315h-873z" />
<glyph unicode="{" horiz-adv-x="643" d="M20 688v76h99q69 0 113 50.5t44 148.5v606h408v-76h-311v-526q0 -107 -46.5 -168t-105.5 -72q58 -11 105 -73t47 -169v-594h311v-75h-408v673q0 98 -44 148.5t-113 50.5h-99z" />
<glyph unicode="|" horiz-adv-x="460" d="M182 -254v1950h97v-1950h-97z" />
<glyph unicode="}" horiz-adv-x="643" d="M-41 -109h311v594q0 107 47 169t105 73q-59 11 -105.5 72t-46.5 168v526h-311v76h408v-606q0 -98 44 -148.5t113 -50.5h99v-76h-99q-69 0 -113 -50.5t-44 -148.5v-673h-408v75z" />
<glyph unicode="~" horiz-adv-x="1056" d="M135 582q0 70 16.5 120.5t44 75.5t57 36t62.5 11q52 0 144.5 -41.5t179.5 -83t125 -41.5q90 0 90 156h76q0 -237 -170 -237q-52 0 -143.5 41t-178 81.5t-125.5 40.5q-22 0 -37 -5t-31 -20t-24 -48.5t-8 -85.5h-78z" />
<glyph unicode="&#xa1;" horiz-adv-x="514" d="M150 748v256h215v-256h-215zM170 -430l41 991h92l41 -991h-174z" />
<glyph unicode="&#xa2;" horiz-adv-x="966" d="M92 500q0 124 30 222.5t83.5 162.5t124 99t153.5 40l19 344h84l-19 -350q67 -12 120 -48.5t73 -72.5l16 127h68v-322h-74q-2 8 -5.5 21.5t-19.5 50t-37 66t-60 59t-85 39.5l-43 -877h15q60 0 117.5 12.5t97.5 29.5t71.5 34.5t46.5 30.5l15 12l-9 -102q-5 -4 -15 -10.5 t-44 -23.5t-72 -30t-97 -23.5t-120 -10.5h-10l-16 -345h-84l16 355q-156 29 -248 159t-92 351zM190 508q0 -178 67 -289t179 -145l43 868q-136 -9 -212.5 -118t-76.5 -316z" />
<glyph unicode="&#xa3;" horiz-adv-x="1325" d="M59 104q0 55 38.5 92t107.5 37q66 0 127 -38q12 29 18 45l94 262h-223v76h246l74 210h-320v76h346l144 416q39 110 109.5 167.5t187.5 57.5q85 0 155.5 -35t91.5 -69l-38 -70q-80 99 -209 99q-76 0 -126 -42.5t-85 -142.5l-133 -381h393v-76h-420l-76 -210h496v-76h-520 q-31 -91 -61 -174.5t-45.5 -123.5t-18.5 -46q98 -49 165.5 -79.5t159.5 -59.5t156 -29q84 0 126 47t42 123l82 -15q-4 -118 -76 -177.5t-182 -59.5q-93 0 -239.5 55.5t-274.5 122.5q-43 -60 -87 -80t-98 -20q-59 0 -93 34t-34 84zM141 106q0 -21 15 -34t39 -13q21 0 51 15 t49 51q-50 33 -96 33q-27 0 -42.5 -14t-15.5 -38z" />
<glyph unicode="&#xa4;" horiz-adv-x="1275" d="M111 266l225 226q-84 100 -84 270q0 149 63 246l-204 204l53 54l198 -201q104 98 275 98q167 0 274 -96l201 199l53 -54l-204 -204q63 -97 63 -246q0 -171 -86 -270l227 -226l-53 -55l-229 227q-100 -71 -246 -71t-246 71l-227 -227zM332 762q0 -164 84 -245t221 -81 q141 0 225 80.5t84 245.5q0 169 -83.5 250.5t-225.5 81.5q-138 0 -221.5 -81.5t-83.5 -250.5z" />
<glyph unicode="&#xa5;" horiz-adv-x="1581" d="M61 1358v76h539v-76h-223l418 -731l419 731h-229v76h535v-76h-207l-283 -494h285v-76h-328l-121 -210h449v-76h-473v-426h231v-76h-559v76h231v426h-479v76h453l-121 210h-332v76h287l-285 494h-207z" />
<glyph unicode="&#xa6;" horiz-adv-x="468" d="M186 -254v870h97v-870h-97zM186 834v862h97v-862h-97z" />
<glyph unicode="&#xa7;" horiz-adv-x="1193" d="M70 850q0 177 186 246l72 -47q-88 -31 -127 -83.5t-39 -111.5q0 -68 42.5 -118.5t110 -81t149.5 -57t164 -56.5t149.5 -69.5t110 -105.5t42.5 -155q0 -73 -31.5 -130t-84.5 -90t-116.5 -50t-134.5 -17q-148 0 -280 49l4 244h82l8 -188q95 -27 178 -27q53 0 100 10.5 t90 32.5t68 63.5t25 98.5q0 74 -42.5 128.5t-110 87t-149.5 59.5t-164 56t-149.5 65.5t-110 99t-42.5 147.5zM264 1358q0 73 31.5 130.5t84.5 91.5t116.5 51.5t134.5 17.5q148 0 282 -50l-4 -243h-82l-8 188q-95 27 -178 27q-53 0 -100 -10.5t-90 -32.5t-68 -63.5t-25 -98.5 q0 -74 42.5 -128.5t110 -88t149.5 -61t164 -57t149.5 -66t110 -98t42.5 -144.5q0 -177 -186 -246l-72 47q88 31 127 83.5t39 111.5q0 68 -42.5 118t-110.5 80t-150 56t-164 56t-150 68.5t-110.5 105t-42.5 155.5z" />
<glyph unicode="&#xa8;" horiz-adv-x="768" d="M123 1206v191h145v-191h-145zM500 1206v191h145v-191h-145z" />
<glyph unicode="&#xa9;" horiz-adv-x="1601" d="M98 717q0 144 37 265.5t102 207.5t154 146t192 89t216 29t216.5 -29t192.5 -89t154.5 -146t103 -207.5t37.5 -265.5t-37.5 -265t-103 -207t-154.5 -146.5t-192.5 -89.5t-216.5 -29t-216 29t-192 89t-154 146.5t-102 207.5t-37 265zM186 717q0 -162 47.5 -290t131 -208.5 t194 -122t240.5 -41.5t241 41.5t195 122t132 208.5t48 290t-48 290t-132 208t-195 121.5t-241 41.5t-240.5 -41.5t-194 -121.5t-131 -208t-47.5 -290zM414 713q0 111 29 198t80 142t118.5 83.5t146.5 28.5t143.5 -34.5t88.5 -73.5l14 108h62v-280h-68q-1 4 -3 11.5t-10 29.5 t-18.5 41.5t-30 44t-42 41.5t-56.5 29t-73 12q-133 0 -212 -95.5t-79 -279.5q0 -185 86.5 -280t224.5 -95q54 0 104 9.5t83 23t58 27t36 22.5l12 10l-6 -88q-5 -3 -14 -8.5t-38.5 -20t-61 -25t-79.5 -19.5t-96 -9q-86 0 -157.5 27.5t-126 81t-85 140.5t-30.5 198z" />
<glyph unicode="&#xaa;" horiz-adv-x="915" d="M94 858q0 41 16.5 75t42.5 58t66.5 43t81 30.5t93.5 20.5t96 13.5t96 7.5v102q0 99 -41.5 141t-134.5 42q-92 0 -187 -43l-6 -160h-63v254h53l10 -33q104 47 205 47q240 0 240 -237v-363q0 -27 0.5 -41t4.5 -33t11.5 -28t22 -16t36.5 -7q53 0 84 19l-2 -62 q-41 -18 -98 -18q-122 0 -127 131q-124 -131 -303 -131q-91 0 -144 51t-53 137zM172 860q0 -61 35 -94t96 -33q84 0 157.5 38t125.5 101v172q-187 -15 -266 -39q-147 -45 -148 -145z" />
<glyph unicode="&#xab;" horiz-adv-x="964" d="M43 494v18l360 494h117l-364 -496v-14l364 -496h-117zM416 494v18l360 494h117l-365 -496v-14l365 -496h-117z" />
<glyph unicode="&#xac;" horiz-adv-x="860" d="M133 645v76h590v-297h-74v221h-516z" />
<glyph unicode="&#xad;" horiz-adv-x="835" d="M119 584v75h598v-75h-598z" />
<glyph unicode="&#xae;" horiz-adv-x="1601" d="M98 717q0 144 37 265.5t102 207.5t154 146t192 89t216 29t216.5 -29t192.5 -89t154.5 -146t103 -207.5t37.5 -265.5t-37.5 -265t-103 -207t-154.5 -146.5t-192.5 -89.5t-216.5 -29t-216 29t-192 89t-154 146.5t-102 207.5t-37 265zM186 717q0 -162 47.5 -290t131 -208.5 t194 -122t240.5 -41.5t241 41.5t195 122t132 208.5t48 290t-48 290t-132 208t-195 121.5t-241 41.5t-240.5 -41.5t-194 -121.5t-131 -208t-47.5 -290zM422 299v68h131v743h-131v68h393q124 0 200.5 -66t76.5 -174q0 -87 -66 -154t-168 -86q46 -14 77.5 -42.5t65.5 -75.5 l150 -213h98v-68h-155l-166 246q-86 129 -205 129h-86v-307h127v-68h-342zM637 741h123q102 0 173 52.5t71 142.5q0 91 -58 132.5t-158 41.5h-151v-369z" />
<glyph unicode="&#xaf;" horiz-adv-x="761" d="M102 1202v76h557v-76h-557z" />
<glyph unicode="&#xb0;" horiz-adv-x="739" d="M88 1145q0 142 76.5 215.5t204.5 73.5t205 -73.5t77 -215.5q0 -140 -77 -213.5t-205 -73.5t-204.5 73.5t-76.5 213.5zM158 1145q0 -117 57 -173.5t154 -56.5q99 0 156 56.5t57 173.5q0 118 -57 174.5t-156 56.5q-97 0 -154 -56.5t-57 -174.5z" />
<glyph unicode="&#xb1;" horiz-adv-x="1130" d="M106 0v76h918v-76h-918zM106 762v76h416v424h82v-424h420v-76h-420v-426h-82v426h-416z" />
<glyph unicode="&#xb2;" horiz-adv-x="716" d="M106 723v57l201 197q117 113 158 171t41 118q0 118 -139 118q-88 0 -154 -53l-10 -149h-70v264h70l4 -47q73 55 174 55q89 0 147 -47.5t58 -138.5q0 -66 -46.5 -136t-154.5 -174l-176 -170h397v-65h-500z" />
<glyph unicode="&#xb3;" horiz-adv-x="665" d="M117 750h53q66 0 122.5 11t103 33t73.5 61t27 91q0 67 -52.5 102t-130.5 35q-60 0 -108 -10v55l262 240h-350v66h442v-64l-250 -225h27q108 0 172.5 -52.5t64.5 -148.5q0 -67 -33.5 -119t-91.5 -82.5t-129 -45.5t-153 -15h-39z" />
<glyph unicode="&#xb4;" horiz-adv-x="681" d="M82 1182l430 323l88 -57l-461 -313z" />
<glyph unicode="&#xb5;" horiz-adv-x="1333" d="M68 928v76h307v-734q0 -96 47.5 -152.5t134.5 -56.5q114 0 218 61t190 167v639h-211v76h307v-928h174v-76h-270v195q-76 -96 -191.5 -155.5t-224.5 -59.5q-60 0 -108 19.5t-72 49.5v-479h-90v1358h-211z" />
<glyph unicode="&#xb6;" horiz-adv-x="1462" d="M106 717q0 144 35.5 263.5t96.5 202.5t145 140.5t178.5 84t198.5 26.5h620v-76h-231v-1282h231v-76h-610q-104 0 -199.5 26.5t-181 84t-148 140t-99 202.5t-36.5 264z" />
<glyph unicode="&#xb7;" horiz-adv-x="518" d="M152 575v256h215v-256h-215z" />
<glyph unicode="&#xb8;" horiz-adv-x="667" d="M82 -526l20 73q9 -8 25.5 -19t70 -29.5t109.5 -18.5q189 0 189 141q0 72 -76.5 107.5t-206.5 35.5l98 254h76l-72 -184q6 0 15.5 -1t37.5 -6.5t54 -13.5t57 -24.5t53.5 -37.5t38 -54.5t15.5 -73.5q0 -54 -20 -95t-49.5 -63.5t-68.5 -37t-70.5 -19t-62.5 -4.5 q-154 0 -233 70z" />
<glyph unicode="&#xb9;" horiz-adv-x="690" d="M113 1272v78l235 96h49v-658h191v-65h-465v65h196v570z" />
<glyph unicode="&#xba;" horiz-adv-x="837" d="M94 1061q0 192 88.5 292.5t235.5 100.5t236 -100.5t89 -292.5t-89 -292.5t-236 -100.5t-235.5 100.5t-88.5 292.5zM172 1061q0 -161 67.5 -245.5t178.5 -84.5q112 0 180 84t68 246q0 160 -68 244t-180 84q-110 0 -178 -84t-68 -244z" />
<glyph unicode="&#xbb;" horiz-adv-x="964" d="M72 0l364 496v14l-364 496h116l361 -494v-18l-361 -494h-116zM444 0l365 496v14l-365 496h117l361 -494v-18l-361 -494h-117z" />
<glyph unicode="&#xbc;" horiz-adv-x="1843" d="M98 1272v78l236 96h49v-658h190v-65h-464v65h196v570zM225 -4l1434 1530l49 -45l-1434 -1530zM1194 205v67l281 467h81l-280 -469h285v203h75v-203h138v-65h-138v-205h-75v205h-367z" />
<glyph unicode="&#xbd;" horiz-adv-x="1861" d="M90 1272v78l236 96h49v-658h190v-65h-465v65h197v570zM217 -4l1434 1530l49 -45l-1434 -1530zM1280 0v57l201 197q116 113 157 170.5t41 118.5q0 119 -139 119q-87 0 -154 -54l-10 -149h-69v264h69l4 -47q73 55 174 55q89 0 147 -47.5t58 -138.5q0 -66 -46 -135.5 t-154 -173.5l-177 -170h398v-66h-500z" />
<glyph unicode="&#xbe;" horiz-adv-x="1843" d="M98 750h54q89 0 159.5 18.5t118 64t47.5 113.5q0 67 -52.5 102t-129.5 35q-61 0 -109 -10v55l263 240h-351v66h443v-64l-250 -225h26q108 0 173 -52.5t65 -148.5q0 -89 -59.5 -150t-148.5 -86.5t-200 -25.5h-38zM225 -4l1434 1530l49 -45l-1434 -1530zM1194 205v67 l281 467h81l-280 -469h285v203h75v-203h138v-65h-138v-205h-75v205h-367z" />
<glyph unicode="&#xbf;" horiz-adv-x="878" d="M141 -166q0 73 32.5 149.5t80.5 144.5t97 135.5t87.5 146t46.5 151.5h86q-11 -89 -49.5 -174.5t-84.5 -152t-90.5 -130t-74.5 -131.5t-30 -133q0 -100 59.5 -154.5t167.5 -54.5q88 0 159 39t115 111v147h80v-362h-71l-9 108q-49 -56 -125 -90.5t-167 -34.5 q-140 0 -225 78t-85 207zM418 748v256h215v-256h-215z" />
<glyph unicode="&#xc0;" horiz-adv-x="1503" d="M10 0v76h230l378 1282h-239v76h493l402 -1358h227v-76h-561v76h231l-155 538h-524l-154 -538h231v-76h-559zM514 690h479l-190 668h-96zM537 1878l88 57l430 -323l-58 -47z" />
<glyph unicode="&#xc1;" horiz-adv-x="1503" d="M10 0v76h230l378 1282h-239v76h493l402 -1358h227v-76h-561v76h231l-155 538h-524l-154 -538h231v-76h-559zM512 1612l430 323l88 -57l-461 -313zM514 690h479l-190 668h-96z" />
<glyph unicode="&#xc2;" horiz-adv-x="1503" d="M10 0v76h230l378 1282h-239v76h493l402 -1358h227v-76h-561v76h231l-155 538h-524l-154 -538h231v-76h-559zM416 1618l305 307h70l305 -307l-58 -53l-282 270l-283 -270zM514 690h479l-190 668h-96z" />
<glyph unicode="&#xc3;" horiz-adv-x="1503" d="M10 0v76h230l378 1282h-239v76h493l402 -1358h227v-76h-561v76h231l-155 538h-524l-154 -538h231v-76h-559zM406 1602q0 125 51 186q45 53 125 53q32 0 65.5 -17t61 -41t54.5 -48t56 -41t55 -17q40 0 63.5 34.5t23.5 123.5h75q-1 -70 -14 -117t-37.5 -71t-51.5 -33.5 t-63 -9.5q-41 0 -85 24.5t-74.5 54t-65.5 54t-61 24.5q-22 0 -37 -5t-31 -20t-24.5 -48.5t-8.5 -85.5h-77zM514 690h479l-190 668h-96z" />
<glyph unicode="&#xc4;" horiz-adv-x="1503" d="M10 0v76h230l378 1282h-239v76h493l402 -1358h227v-76h-561v76h231l-155 538h-524l-154 -538h231v-76h-559zM479 1636v191h146v-191h-146zM514 690h479l-190 668h-96zM856 1636v191h145v-191h-145z" />
<glyph unicode="&#xc5;" horiz-adv-x="1499" d="M10 0v76h230l378 1282h-239v76h174q-82 76 -82 206q0 136 82 210.5t203 74.5q120 0 201 -74.5t81 -210.5q0 -93 -41 -157.5t-112 -96.5l389 -1310h227v-76h-561v76h231l-155 538h-524l-154 -538h231v-76h-559zM514 690h479l-190 668h-96zM563 1640q0 -104 53 -154 t140 -50q85 0 136.5 50t51.5 154q0 105 -51.5 156t-136.5 51q-87 0 -140 -51t-53 -156z" />
<glyph unicode="&#xc6;" horiz-adv-x="2109" d="M-20 0v76h221l647 1282h-232v76h1313l27 -314h-76l-31 238h-684v-594h400v211h92v-498h-92v211h-400v-612h746l31 237h75l-26 -313h-1153v76h231v536h-498l-262 -536h230v-76h-559zM608 688h461v670h-125z" />
<glyph unicode="&#xc7;" horiz-adv-x="1314" d="M135 702q0 181 39.5 325t110.5 237t167 141.5t210 48.5q136 0 240 -61t153 -142l22 203h76v-426h-76q-10 38 -28.5 79.5t-53 91t-77 88.5t-106 65t-134.5 26q-209 0 -329 -172.5t-120 -498.5q0 -163 36.5 -288.5t103 -202.5t154 -116t194.5 -39q80 0 160 18.5t136.5 44.5 t101 52.5t67.5 45.5l22 18l-18 -119q-8 -6 -22.5 -15t-62.5 -33t-100 -42.5t-131 -34t-159 -16.5l-56 -146q6 0 15.5 -1t37.5 -6.5t54 -13.5t57 -24.5t53.5 -37.5t38 -54.5t15.5 -73.5q0 -54 -20 -95t-49.5 -63.5t-68.5 -37t-70.5 -19t-62.5 -4.5q-154 0 -233 70l20 73 q9 -8 25.5 -19t70 -29.5t109.5 -18.5q189 0 189 141q0 72 -76.5 107.5t-206.5 35.5l84 220q-230 23 -366 204t-136 514z" />
<glyph unicode="&#xc8;" horiz-adv-x="1351" d="M80 0v76h231v1282h-231v76h1091l27 -314h-76l-30 238h-684v-594h399v211h92v-498h-92v211h-399v-612h745l31 237h76l-27 -313h-1153zM420 1878l88 57l430 -323l-57 -47z" />
<glyph unicode="&#xc9;" horiz-adv-x="1351" d="M80 0v76h231v1282h-231v76h1091l27 -314h-76l-30 238h-684v-594h399v211h92v-498h-92v211h-399v-612h745l31 237h76l-27 -313h-1153zM502 1612l430 323l88 -57l-461 -313z" />
<glyph unicode="&#xca;" horiz-adv-x="1351" d="M80 0v76h231v1282h-231v76h1091l27 -314h-76l-30 238h-684v-594h399v211h92v-498h-92v211h-399v-612h745l31 237h76l-27 -313h-1153zM360 1618l306 307h69l305 -307l-57 -53l-283 270l-282 -270z" />
<glyph unicode="&#xcb;" horiz-adv-x="1351" d="M80 0v76h231v1282h-231v76h1091l27 -314h-76l-30 238h-684v-594h399v211h92v-498h-92v211h-399v-612h745l31 237h76l-27 -313h-1153zM449 1636v191h145v-191h-145zM825 1636v191h146v-191h-146z" />
<glyph unicode="&#xcc;" horiz-adv-x="718" d="M80 0v76h231v1282h-231v76h559v-76h-231v-1282h231v-76h-559zM100 1878l88 57l430 -323l-57 -47z" />
<glyph unicode="&#xcd;" horiz-adv-x="718" d="M80 0v76h231v1282h-231v76h559v-76h-231v-1282h231v-76h-559zM100 1612l430 323l88 -57l-460 -313z" />
<glyph unicode="&#xce;" horiz-adv-x="718" d="M20 1618l306 307h69l305 -307l-57 -53l-283 270l-282 -270zM80 0v76h231v1282h-231v76h559v-76h-231v-1282h231v-76h-559z" />
<glyph unicode="&#xcf;" horiz-adv-x="718" d="M80 0v76h231v1282h-231v76h559v-76h-231v-1282h231v-76h-559zM94 1636v191h146v-191h-146zM471 1636v191h145v-191h-145z" />
<glyph unicode="&#xd0;" horiz-adv-x="1486" d="M82 0v76h231v612h-231v76h231v594h-231v76h637q105 0 197 -24.5t173.5 -79.5t140 -136.5t92.5 -203.5t34 -273t-35 -273t-94.5 -203.5t-143 -136.5t-176.5 -79.5t-198 -24.5h-627zM410 76h278q267 0 420.5 158.5t153.5 482.5q0 166 -41.5 290t-118.5 200t-181 113.5 t-235 37.5h-276v-594h450v-76h-450v-612z" />
<glyph unicode="&#xd1;" horiz-adv-x="1630" d="M80 0v76h231v1282h-231v76h350l803 -1317v1241h-232v76h553v-76h-231v-1358h-119l-803 1313v-1237h252v-76h-573zM453 1602q0 125 51 186q45 53 125 53q39 0 81.5 -25.5t73 -56.5t68.5 -56.5t70 -25.5q40 0 63 34.5t23 123.5h75q-1 -70 -14 -117t-37 -71t-51 -33.5 t-63 -9.5q-41 0 -85 24.5t-74.5 54t-66 54t-61.5 24.5q-22 0 -37 -5t-31 -20t-24.5 -48.5t-8.5 -85.5h-77z" />
<glyph unicode="&#xd2;" d="M133 717q0 180 44 322.5t121 232t177 136t217 46.5t217.5 -46.5t178 -136t121.5 -232t44 -322.5t-44 -322.5t-121.5 -232t-178 -136t-217.5 -46.5t-217 46.5t-177 136t-121 232t-44 322.5zM227 717q0 -311 131.5 -485.5t333.5 -174.5q98 0 182 43.5t148 124.5t100.5 208 t36.5 284t-36.5 283t-100.5 206.5t-148 123t-182 42.5t-182 -42.5t-147.5 -123t-99.5 -206.5t-36 -283zM434 1878l88 57l430 -323l-57 -47z" />
<glyph unicode="&#xd3;" d="M133 717q0 180 44 322.5t121 232t177 136t217 46.5t217.5 -46.5t178 -136t121.5 -232t44 -322.5t-44 -322.5t-121.5 -232t-178 -136t-217.5 -46.5t-217 46.5t-177 136t-121 232t-44 322.5zM227 717q0 -311 131.5 -485.5t333.5 -174.5q98 0 182 43.5t148 124.5t100.5 208 t36.5 284t-36.5 283t-100.5 206.5t-148 123t-182 42.5t-182 -42.5t-147.5 -123t-99.5 -206.5t-36 -283zM434 1612l430 323l88 -57l-460 -313z" />
<glyph unicode="&#xd4;" d="M133 717q0 180 44 322.5t121 232t177 136t217 46.5t217.5 -46.5t178 -136t121.5 -232t44 -322.5t-44 -322.5t-121.5 -232t-178 -136t-217.5 -46.5t-217 46.5t-177 136t-121 232t-44 322.5zM227 717q0 -311 131.5 -485.5t333.5 -174.5q98 0 182 43.5t148 124.5t100.5 208 t36.5 284t-36.5 283t-100.5 206.5t-148 123t-182 42.5t-182 -42.5t-147.5 -123t-99.5 -206.5t-36 -283zM352 1618l305 307h70l305 -307l-57 -53l-283 270l-282 -270z" />
<glyph unicode="&#xd5;" d="M133 717q0 180 44 322.5t121 232t177 136t217 46.5t217.5 -46.5t178 -136t121.5 -232t44 -322.5t-44 -322.5t-121.5 -232t-178 -136t-217.5 -46.5t-217 46.5t-177 136t-121 232t-44 322.5zM227 717q0 -311 131.5 -485.5t333.5 -174.5q98 0 182 43.5t148 124.5t100.5 208 t36.5 284t-36.5 283t-100.5 206.5t-148 123t-182 42.5t-182 -42.5t-147.5 -123t-99.5 -206.5t-36 -283zM377 1602q0 125 51 186q45 53 125 53q39 0 81.5 -25.5t73 -56.5t68.5 -56.5t70 -25.5q40 0 63 34.5t23 123.5h76q-1 -70 -14 -117t-37.5 -71t-51.5 -33.5t-63 -9.5 q-41 0 -85 24.5t-74.5 54t-66 54t-61.5 24.5q-22 0 -37 -5t-31 -20t-24 -48.5t-8 -85.5h-78z" />
<glyph unicode="&#xd6;" d="M133 717q0 180 44 322.5t121 232t177 136t217 46.5t217.5 -46.5t178 -136t121.5 -232t44 -322.5t-44 -322.5t-121.5 -232t-178 -136t-217.5 -46.5t-217 46.5t-177 136t-121 232t-44 322.5zM227 717q0 -311 131.5 -485.5t333.5 -174.5q98 0 182 43.5t148 124.5t100.5 208 t36.5 284t-36.5 283t-100.5 206.5t-148 123t-182 42.5t-182 -42.5t-147.5 -123t-99.5 -206.5t-36 -283zM432 1636v191h146v-191h-146zM809 1636v191h145v-191h-145z" />
<glyph unicode="&#xd7;" horiz-adv-x="1255" d="M100 225l473 473l-473 473l54 54l473 -473l475 473l53 -54l-473 -473l473 -473l-53 -55l-475 473l-473 -473z" />
<glyph unicode="&#xd8;" d="M133 717q0 180 44 322.5t121 232t177 136t217 46.5q155 0 283 -84l123 244l73 -35l-131 -258q213 -200 213 -604q0 -180 -44 -322.5t-121.5 -232t-178 -136t-217.5 -46.5q-164 0 -286 83l-125 -249l-74 36l133 267q-97 93 -152 244.5t-55 355.5zM233 717q0 -335 152 -514 l549 1087q-108 82 -242 82q-98 0 -181 -42.5t-145 -123t-97.5 -206.5t-35.5 -283zM446 141q107 -84 246 -84q201 0 331 174t130 486q0 333 -158 516z" />
<glyph unicode="&#xd9;" horiz-adv-x="1650" d="M66 1358v76h579v-76h-252v-840q0 -107 24 -189t63.5 -132t96.5 -81t117 -43t131 -12t131 12t117 43t96.5 81t63.5 132t24 189v840h-251v76h579v-76h-231v-842q0 -126 -29 -221.5t-76.5 -154.5t-117.5 -95.5t-143.5 -50.5t-162.5 -14q-63 0 -117.5 6.5t-109 23.5 t-98.5 43.5t-82.5 68t-64.5 96t-41 129t-15 165.5v846h-231zM565 1878l88 57l430 -323l-57 -47z" />
<glyph unicode="&#xda;" horiz-adv-x="1650" d="M66 1358v76h579v-76h-252v-840q0 -107 24 -189t63.5 -132t96.5 -81t117 -43t131 -12t131 12t117 43t96.5 81t63.5 132t24 189v840h-251v76h579v-76h-231v-842q0 -126 -29 -221.5t-76.5 -154.5t-117.5 -95.5t-143.5 -50.5t-162.5 -14q-63 0 -117.5 6.5t-109 23.5 t-98.5 43.5t-82.5 68t-64.5 96t-41 129t-15 165.5v846h-231zM565 1612l430 323l88 -57l-460 -313z" />
<glyph unicode="&#xdb;" horiz-adv-x="1650" d="M66 1358v76h579v-76h-252v-840q0 -107 24 -189t63.5 -132t96.5 -81t117 -43t131 -12t131 12t117 43t96.5 81t63.5 132t24 189v840h-251v76h579v-76h-231v-842q0 -126 -29 -221.5t-76.5 -154.5t-117.5 -95.5t-143.5 -50.5t-162.5 -14q-63 0 -117.5 6.5t-109 23.5 t-98.5 43.5t-82.5 68t-64.5 96t-41 129t-15 165.5v846h-231zM485 1618l306 307h69l305 -307l-57 -53l-283 270l-282 -270z" />
<glyph unicode="&#xdc;" horiz-adv-x="1650" d="M66 1358v76h579v-76h-252v-840q0 -107 24 -189t63.5 -132t96.5 -81t117 -43t131 -12t131 12t117 43t96.5 81t63.5 132t24 189v840h-251v76h579v-76h-231v-842q0 -126 -29 -221.5t-76.5 -154.5t-117.5 -95.5t-143.5 -50.5t-162.5 -14q-63 0 -117.5 6.5t-109 23.5 t-98.5 43.5t-82.5 68t-64.5 96t-41 129t-15 165.5v846h-231zM563 1636v191h146v-191h-146zM940 1636v191h145v-191h-145z" />
<glyph unicode="&#xdd;" horiz-adv-x="1462" d="M2 1358v76h539v-76h-224l418 -744l420 744h-229v76h534v-76h-207l-471 -826v-456h232v-76h-559v76h231v456l-477 826h-207zM471 1612l430 323l88 -57l-461 -313z" />
<glyph unicode="&#xde;" horiz-adv-x="1216" d="M80 0v76h231v1282h-231v76h586v-76h-258v-221h307q185 0 298 -115t113 -291q0 -175 -119 -289t-309 -114h-290v-252h258v-76h-586zM408 403h292q149 0 240.5 88.5t91.5 239.5q0 150 -92.5 240t-237.5 90h-294v-658z" />
<glyph unicode="&#xdf;" horiz-adv-x="1228" d="M76 0v76h174v852h-174v76h174v149q0 169 106.5 278t302.5 109q157 0 257 -72.5t100 -207.5q0 -61 -27.5 -121t-67 -107t-79 -90t-67 -86t-27.5 -80q0 -61 47 -108q28 -26 80.5 -57t98.5 -59t91.5 -65.5t72.5 -94t27 -128.5q0 -131 -93.5 -207.5t-264.5 -76.5 q-109 0 -191 16v84q79 -23 185 -23q12 0 25.5 0.5t42.5 5t53.5 11.5t53.5 22.5t49.5 36t34 53.5t13.5 74q0 54 -23 97.5t-60 73.5t-81.5 56.5l-89 53t-81.5 56.5t-60 73.5t-23 97.5q0 50 27.5 101t66.5 94t78.5 86.5t67 95.5t27.5 104q0 41 -13 76t-41.5 65.5t-83 48 t-129.5 17.5q-50 0 -92 -9.5t-72 -23.5t-53.5 -37t-38.5 -44t-26 -51.5t-16 -52t-7.5 -52t-3 -45.5t-0.5 -39v-1102h-270z" />
<glyph unicode="&#xe0;" horiz-adv-x="1028" d="M82 238q0 56 21 102t55 78t86 56.5t106 39t123.5 24t130 13.5t133.5 6v139q0 134 -56 190t-183 56q-108 0 -232 -53l-12 -209h-78v344h66l10 -57q121 57 264 57q318 0 318 -313v-486q0 -36 1 -55t6.5 -44.5t16 -38t30.5 -21.5t50 -9q69 0 109 21l-5 -74q-58 -24 -127 -24 q-50 0 -85.5 17t-53 45.5t-24.5 57t-7 60.5q-70 -86 -158.5 -133t-217.5 -47q-127 0 -207 72t-80 186zM180 246q0 -85 55.5 -136t147.5 -51q117 0 202 49t152 142v231q-89 -4 -139.5 -8t-135 -18t-140.5 -37q-142 -56 -142 -172zM289 1448l88 57l430 -323l-57 -47z" />
<glyph unicode="&#xe1;" horiz-adv-x="1028" d="M82 238q0 56 21 102t55 78t86 56.5t106 39t123.5 24t130 13.5t133.5 6v139q0 134 -56 190t-183 56q-108 0 -232 -53l-12 -209h-78v344h66l10 -57q121 57 264 57q318 0 318 -313v-486q0 -36 1 -55t6.5 -44.5t16 -38t30.5 -21.5t50 -9q69 0 109 21l-5 -74q-58 -24 -127 -24 q-50 0 -85.5 17t-53 45.5t-24.5 57t-7 60.5q-70 -86 -158.5 -133t-217.5 -47q-127 0 -207 72t-80 186zM180 246q0 -85 55.5 -136t147.5 -51q117 0 202 49t152 142v231q-89 -4 -139.5 -8t-135 -18t-140.5 -37q-142 -56 -142 -172zM289 1182l430 323l88 -57l-461 -313z" />
<glyph unicode="&#xe2;" horiz-adv-x="1028" d="M82 238q0 56 21 102t55 78t86 56.5t106 39t123.5 24t130 13.5t133.5 6v139q0 134 -56 190t-183 56q-108 0 -232 -53l-12 -209h-78v344h66l10 -57q121 57 264 57q318 0 318 -313v-486q0 -36 1 -55t6.5 -44.5t16 -38t30.5 -21.5t50 -9q69 0 109 21l-5 -74q-58 -24 -127 -24 q-50 0 -85.5 17t-53 45.5t-24.5 57t-7 60.5q-70 -86 -158.5 -133t-217.5 -47q-127 0 -207 72t-80 186zM147 1188l306 307h69l305 -307l-57 -53l-283 270l-282 -270zM180 246q0 -85 55.5 -136t147.5 -51q117 0 202 49t152 142v231q-89 -4 -139.5 -8t-135 -18t-140.5 -37 q-142 -56 -142 -172z" />
<glyph unicode="&#xe3;" horiz-adv-x="1028" d="M82 238q0 56 21 102t55 78t86 56.5t106 39t123.5 24t130 13.5t133.5 6v139q0 134 -56 190t-183 56q-108 0 -232 -53l-12 -209h-78v344h66l10 -57q121 57 264 57q318 0 318 -313v-486q0 -36 1 -55t6.5 -44.5t16 -38t30.5 -21.5t50 -9q69 0 109 21l-5 -74q-58 -24 -127 -24 q-50 0 -85.5 17t-53 45.5t-24.5 57t-7 60.5q-70 -86 -158.5 -133t-217.5 -47q-127 0 -207 72t-80 186zM172 1171q0 126 51 187q45 53 125 53q39 0 81.5 -25.5t73 -56.5t68.5 -56.5t70 -25.5q40 0 63 34.5t23 123.5h76q-1 -70 -14 -117t-37.5 -71t-51.5 -33.5t-63 -9.5 q-41 0 -85 24.5t-74.5 54t-66 54t-61.5 24.5q-22 0 -37 -5t-31 -20t-24 -49t-8 -86h-78zM180 246q0 -85 55.5 -136t147.5 -51q117 0 202 49t152 142v231q-89 -4 -139.5 -8t-135 -18t-140.5 -37q-142 -56 -142 -172z" />
<glyph unicode="&#xe4;" horiz-adv-x="1028" d="M82 238q0 56 21 102t55 78t86 56.5t106 39t123.5 24t130 13.5t133.5 6v139q0 134 -56 190t-183 56q-108 0 -232 -53l-12 -209h-78v344h66l10 -57q121 57 264 57q318 0 318 -313v-486q0 -36 1 -55t6.5 -44.5t16 -38t30.5 -21.5t50 -9q69 0 109 21l-5 -74q-58 -24 -127 -24 q-50 0 -85.5 17t-53 45.5t-24.5 57t-7 60.5q-70 -86 -158.5 -133t-217.5 -47q-127 0 -207 72t-80 186zM180 246q0 -85 55.5 -136t147.5 -51q117 0 202 49t152 142v231q-89 -4 -139.5 -8t-135 -18t-140.5 -37q-142 -56 -142 -172zM242 1206v191h145v-191h-145zM618 1206v191 h146v-191h-146z" />
<glyph unicode="&#xe5;" horiz-adv-x="1028" d="M82 238q0 56 21 102t55 78t86 56.5t106 39t123.5 24t130 13.5t133.5 6v139q0 134 -56 190t-183 56q-108 0 -232 -53l-12 -209h-78v344h66l10 -57q121 57 264 57q318 0 318 -313v-486q0 -36 1 -55t6.5 -44.5t16 -38t30.5 -21.5t50 -9q69 0 109 21l-5 -74q-58 -24 -127 -24 q-50 0 -85.5 17t-53 45.5t-24.5 57t-7 60.5q-70 -86 -158.5 -133t-217.5 -47q-127 0 -207 72t-80 186zM180 246q0 -85 55.5 -136t147.5 -51q117 0 202 49t152 142v231q-89 -4 -139.5 -8t-135 -18t-140.5 -37q-142 -56 -142 -172zM272 1378q0 114 69.5 177t170.5 63 t170.5 -63t69.5 -177q0 -113 -69.5 -175t-170.5 -62t-170.5 62t-69.5 175zM350 1378q0 -88 45 -131t117 -43t116 43t44 131q0 89 -44 131.5t-116 42.5q-73 0 -117.5 -42.5t-44.5 -131.5z" />
<glyph unicode="&#xe6;" horiz-adv-x="1636" d="M84 246q0 54 19 97.5t50.5 74t81.5 54t102.5 38t123 24.5t133 15t143.5 8v139q0 134 -54.5 190t-180.5 56q-110 0 -234 -53l-12 -209h-78v344h66l10 -57q121 57 268 57q244 0 291 -190q50 93 140 141.5t198 48.5q44 0 85.5 -7t96 -33t93.5 -69t66.5 -124.5t27.5 -190.5 v-78l-689 -35q4 -210 96 -318t253 -108q60 0 117.5 12.5t97.5 29.5t71.5 34.5t46.5 30.5l15 12l-8 -102q-5 -4 -15 -10.5t-44.5 -23.5t-72 -30t-97 -23.5t-120.5 -10.5q-245 0 -358 194q-90 -96 -187 -145t-241 -49q-140 0 -220.5 70.5t-80.5 195.5zM182 244 q0 -90 63.5 -137.5t166.5 -47.5q63 0 122.5 17.5t97.5 39.5t73.5 52t48.5 45.5t24 30.5q-38 96 -41 237q-89 -5 -137 -8.5t-124.5 -13t-119 -25t-88.5 -40t-66 -62.5t-20 -88zM831 563l594 29q0 181 -73 267.5t-201 86.5q-137 0 -228.5 -92.5t-91.5 -263.5v-27z" />
<glyph unicode="&#xe7;" horiz-adv-x="1011" d="M106 500q0 251 120.5 387.5t303.5 136.5q87 0 159.5 -37t105.5 -94l16 131h68v-322h-74q-12 36 -24 65.5t-35 64t-50 57.5t-68.5 39t-90.5 16q-144 0 -239 -111.5t-95 -324.5q0 -216 102.5 -331.5t263.5 -115.5q60 0 117.5 12.5t97.5 29.5t71.5 34.5t46.5 30.5l16 12 l-9 -102q-6 -4 -16.5 -10.5t-46 -23.5t-74 -30t-98.5 -23.5t-121 -10.5h-4l-55 -146q6 0 15.5 -1t37.5 -6.5t53.5 -13.5t56.5 -24.5t53.5 -37.5t38 -54.5t15.5 -73.5q0 -54 -20 -95t-49 -63.5t-68 -37t-70.5 -19t-62.5 -4.5q-155 0 -234 70l21 73q3 -3 9 -7.5t26 -16 t42 -20.5t56.5 -16t70.5 -7q189 0 189 141q0 72 -76.5 107.5t-206.5 35.5l84 222q-166 26 -267.5 157t-101.5 357z" />
<glyph unicode="&#xe8;" horiz-adv-x="1032" d="M104 500q0 127 34.5 228.5t94.5 165t137 97t165 33.5q174 0 273 -108t99 -316v-78h-706v-14q0 -216 102.5 -331.5t263.5 -115.5q60 0 120 12.5t102.5 29.5t77 34.5t51.5 30.5l18 12l-8 -102q-6 -4 -18 -10.5t-51 -23.5t-80.5 -30t-104 -23.5t-123.5 -10.5 q-94 0 -174.5 32.5t-142 95.5t-96 163.5t-34.5 228.5zM205 598h612q0 180 -74.5 264t-203.5 84q-135 0 -226 -88.5t-108 -259.5zM281 1448l88 57l430 -323l-58 -47z" />
<glyph unicode="&#xe9;" horiz-adv-x="1032" d="M104 500q0 127 34.5 228.5t94.5 165t137 97t165 33.5q174 0 273 -108t99 -316v-78h-706v-14q0 -216 102.5 -331.5t263.5 -115.5q60 0 120 12.5t102.5 29.5t77 34.5t51.5 30.5l18 12l-8 -102q-6 -4 -18 -10.5t-51 -23.5t-80.5 -30t-104 -23.5t-123.5 -10.5 q-94 0 -174.5 32.5t-142 95.5t-96 163.5t-34.5 228.5zM205 598h612q0 180 -74.5 264t-203.5 84q-135 0 -226 -88.5t-108 -259.5zM281 1182l430 323l88 -57l-461 -313z" />
<glyph unicode="&#xea;" horiz-adv-x="1032" d="M104 500q0 127 34.5 228.5t94.5 165t137 97t165 33.5q174 0 273 -108t99 -316v-78h-706v-14q0 -216 102.5 -331.5t263.5 -115.5q60 0 120 12.5t102.5 29.5t77 34.5t51.5 30.5l18 12l-8 -102q-6 -4 -18 -10.5t-51 -23.5t-80.5 -30t-104 -23.5t-123.5 -10.5 q-94 0 -174.5 32.5t-142 95.5t-96 163.5t-34.5 228.5zM180 1188l305 307h70l305 -307l-57 -53l-283 270l-282 -270zM205 598h612q0 180 -74.5 264t-203.5 84q-135 0 -226 -88.5t-108 -259.5z" />
<glyph unicode="&#xeb;" horiz-adv-x="1032" d="M104 500q0 127 34.5 228.5t94.5 165t137 97t165 33.5q174 0 273 -108t99 -316v-78h-706v-14q0 -216 102.5 -331.5t263.5 -115.5q60 0 120 12.5t102.5 29.5t77 34.5t51.5 30.5l18 12l-8 -102q-6 -4 -18 -10.5t-51 -23.5t-80.5 -30t-104 -23.5t-123.5 -10.5 q-94 0 -174.5 32.5t-142 95.5t-96 163.5t-34.5 228.5zM205 598h612q0 180 -74.5 264t-203.5 84q-135 0 -226 -88.5t-108 -259.5zM233 1206v191h146v-191h-146zM610 1206v191h146v-191h-146z" />
<glyph unicode="&#xec;" horiz-adv-x="643" d="M55 0v76h232v852h-232v76h328v-928h231v-76h-559zM76 1448l88 57l430 -323l-57 -47z" />
<glyph unicode="&#xed;" horiz-adv-x="643" d="M55 0v76h232v852h-232v76h328v-928h231v-76h-559zM76 1182l430 323l88 -57l-461 -313z" />
<glyph unicode="&#xee;" horiz-adv-x="643" d="M-4 1188l305 307h70l305 -307l-58 -53l-282 270l-283 -270zM55 0v76h232v852h-232v76h328v-928h231v-76h-559z" />
<glyph unicode="&#xef;" horiz-adv-x="643" d="M55 0v76h232v852h-232v76h328v-928h231v-76h-559zM70 1206v191h145v-191h-145zM446 1206v191h146v-191h-146z" />
<glyph unicode="&#xf0;" horiz-adv-x="1120" d="M104 502q0 241 123.5 381.5t321.5 140.5q178 0 293 -121q-83 195 -271 354l-196 -112l-35 61l172 99q-149 116 -336 192l150 14q140 -59 266 -161l231 133l35 -60l-209 -120l37 -35q326 -319 326 -764q0 -243 -127.5 -383.5t-327.5 -140.5q-203 0 -328 134t-125 388z M201 502q0 -215 101 -329t257 -114t257.5 114t101.5 329q0 109 -29.5 195t-80.5 139t-116.5 80.5t-140.5 27.5q-155 0 -252.5 -113t-97.5 -329z" />
<glyph unicode="&#xf1;" horiz-adv-x="1271" d="M76 0v76h174v852h-174v76h268v-193q134 106 241 159.5t206 53.5q66 0 115 -18t76 -44.5t42.5 -66t20 -72.5t4.5 -73v-674h190v-76h-461v76h174v674q0 186 -159 186q-96 0 -195.5 -50.5t-251.5 -160.5v-649h191v-76h-461zM326 1171q0 126 51 187q45 53 125 53 q39 0 81.5 -25.5t73 -56.5t68.5 -56.5t70 -25.5q40 0 63 34.5t23 123.5h75q-1 -70 -14 -117t-37 -71t-51 -33.5t-63 -9.5q-41 0 -85 24.5t-74.5 54t-66 54t-61.5 24.5q-22 0 -37 -5t-31 -20t-24.5 -49t-8.5 -86h-77z" />
<glyph unicode="&#xf2;" horiz-adv-x="1114" d="M102 502q0 236 128.5 379t326.5 143t326.5 -143t128.5 -379t-128.5 -379t-326.5 -143t-326.5 143t-128.5 379zM199 502q0 -215 101 -329t257 -114t257 114t101 329t-101 328.5t-257 113.5t-257 -113.5t-101 -328.5zM299 1448l88 57l430 -323l-57 -47z" />
<glyph unicode="&#xf3;" horiz-adv-x="1114" d="M102 502q0 236 128.5 379t326.5 143t326.5 -143t128.5 -379t-128.5 -379t-326.5 -143t-326.5 143t-128.5 379zM199 502q0 -215 101 -329t257 -114t257 114t101 329t-101 328.5t-257 113.5t-257 -113.5t-101 -328.5zM299 1182l430 323l88 -57l-461 -313z" />
<glyph unicode="&#xf4;" horiz-adv-x="1114" d="M102 502q0 236 128.5 379t326.5 143t326.5 -143t128.5 -379t-128.5 -379t-326.5 -143t-326.5 143t-128.5 379zM199 502q0 -215 101 -329t257 -114t257 114t101 329t-101 328.5t-257 113.5t-257 -113.5t-101 -328.5zM217 1188l305 307h70l305 -307l-57 -53l-283 270 l-283 -270z" />
<glyph unicode="&#xf5;" horiz-adv-x="1114" d="M102 502q0 236 128.5 379t326.5 143t326.5 -143t128.5 -379t-128.5 -379t-326.5 -143t-326.5 143t-128.5 379zM199 502q0 -215 101 -329t257 -114t257 114t101 329t-101 328.5t-257 113.5t-257 -113.5t-101 -328.5zM242 1171q0 126 51 187q45 53 125 53q39 0 81.5 -25.5 t73 -56.5t68.5 -56.5t70 -25.5q40 0 63 34.5t23 123.5h75q-1 -70 -14 -117t-37 -71t-51 -33.5t-63 -9.5q-41 0 -85 24.5t-74.5 54t-66 54t-61.5 24.5q-22 0 -37 -5t-31 -20t-24.5 -49t-8.5 -86h-77z" />
<glyph unicode="&#xf6;" horiz-adv-x="1114" d="M102 502q0 236 128.5 379t326.5 143t326.5 -143t128.5 -379t-128.5 -379t-326.5 -143t-326.5 143t-128.5 379zM199 502q0 -215 101 -329t257 -114t257 114t101 329t-101 328.5t-257 113.5t-257 -113.5t-101 -328.5zM297 1206v191h145v-191h-145zM674 1206v191h145v-191 h-145z" />
<glyph unicode="&#xf7;" horiz-adv-x="1052" d="M109 659v76h835v-76h-835zM438 268v205h174v-205h-174zM438 922v204h174v-204h-174z" />
<glyph unicode="&#xf8;" horiz-adv-x="1114" d="M102 502q0 236 128.5 379t326.5 143q123 0 223 -59l135 241l68 -37l-141 -249q80 -69 125 -176.5t45 -241.5q0 -236 -128.5 -379t-326.5 -143q-118 0 -215 51l-143 -256l-68 39l148 262q-84 69 -130.5 178.5t-46.5 247.5zM199 502q0 -232 123 -352l417 743 q-77 51 -182 51q-156 0 -257 -113.5t-101 -328.5zM383 102q76 -43 174 -43q156 0 257 114t101 329q0 225 -114 342z" />
<glyph unicode="&#xf9;" horiz-adv-x="1236" d="M29 928v76h307v-734q0 -96 46.5 -152.5t133.5 -56.5q114 0 219 61t191 167v639h-211v76h307v-928h174v-76h-270v195q-76 -96 -191.5 -155.5t-224.5 -59.5q-66 0 -116.5 19t-79 47.5t-46 68.5t-23 75t-5.5 74v664h-211zM365 1448l88 57l430 -323l-58 -47z" />
<glyph unicode="&#xfa;" horiz-adv-x="1236" d="M29 928v76h307v-734q0 -96 46.5 -152.5t133.5 -56.5q114 0 219 61t191 167v639h-211v76h307v-928h174v-76h-270v195q-76 -96 -191.5 -155.5t-224.5 -59.5q-66 0 -116.5 19t-79 47.5t-46 68.5t-23 75t-5.5 74v664h-211zM446 1182l431 323l88 -57l-461 -313z" />
<glyph unicode="&#xfb;" horiz-adv-x="1236" d="M29 928v76h307v-734q0 -96 46.5 -152.5t133.5 -56.5q114 0 219 61t191 167v639h-211v76h307v-928h174v-76h-270v195q-76 -96 -191.5 -155.5t-224.5 -59.5q-66 0 -116.5 19t-79 47.5t-46 68.5t-23 75t-5.5 74v664h-211zM262 1188l305 307h70l305 -307l-57 -53l-283 270 l-283 -270z" />
<glyph unicode="&#xfc;" horiz-adv-x="1236" d="M29 928v76h307v-734q0 -96 46.5 -152.5t133.5 -56.5q114 0 219 61t191 167v639h-211v76h307v-928h174v-76h-270v195q-76 -96 -191.5 -155.5t-224.5 -59.5q-66 0 -116.5 19t-79 47.5t-46 68.5t-23 75t-5.5 74v664h-211zM336 1206v191h145v-191h-145zM713 1206v191h145 v-191h-145z" />
<glyph unicode="&#xfd;" horiz-adv-x="1210" d="M14 928v76h453v-76h-203l346 -813l330 813h-197v76h455v-76h-160l-370 -885q-86 -203 -130 -277q-90 -150 -212 -195q-62 -22 -138 -22q-44 0 -83 6.5t-55 12.5l-17 6l-2 84q62 -31 166 -31q43 0 82.5 14.5t69.5 35.5t59.5 56t48.5 62.5t40 69.5t30.5 64t23.5 57l10 26 l-399 916h-148zM346 1182l430 323l88 -57l-461 -313z" />
<glyph unicode="&#xfe;" horiz-adv-x="1187" d="M-18 -354h194v1753h-194v76h290v-668q55 104 151 160.5t216 56.5q197 0 321.5 -142t124.5 -378q0 -240 -127.5 -382t-326.5 -142q-120 0 -212.5 54t-146.5 154v-542h238v-76h-528v76zM266 502q0 -214 104 -328.5t261 -114.5q156 0 257 114t101 329q0 214 -101.5 328 t-258.5 114t-260 -114t-103 -328z" />
<glyph unicode="&#xff;" horiz-adv-x="1210" d="M14 928v76h453v-76h-203l346 -813l330 813h-197v76h455v-76h-160l-370 -885q-86 -203 -130 -277q-90 -150 -212 -195q-62 -22 -138 -22q-44 0 -83 6.5t-55 12.5l-17 6l-2 84q62 -31 166 -31q43 0 82.5 14.5t69.5 35.5t59.5 56t48.5 62.5t40 69.5t30.5 64t23.5 57l10 26 l-399 916h-148zM340 1206v191h145v-191h-145zM717 1206v191h145v-191h-145z" />
<glyph unicode="&#x152;" horiz-adv-x="2179" d="M131 717q0 180 48 319.5t133.5 225t195.5 129t240 43.5h1251l26 -314h-75l-31 238h-705v-594h420v211h92v-498h-92v211h-420v-612h766l31 237h76l-27 -313h-1302q-130 0 -241.5 43.5t-199 129t-137 225t-49.5 319.5zM225 717q0 -165 42.5 -289t120.5 -200.5t182.5 -114 t234.5 -37.5h313v1282h-311q-132 0 -236.5 -37.5t-183 -113.5t-120.5 -200t-42 -290z" />
<glyph unicode="&#x153;" horiz-adv-x="1839" d="M102 502q0 236 128.5 379t326.5 143q140 0 245 -71.5t156 -204.5q46 136 148 206t235 70q174 0 273.5 -108t99.5 -316v-78h-706v-35q0 -108 29.5 -192t81.5 -134t116.5 -75t138.5 -25q60 0 120 12.5t102.5 29.5t77 34.5t52.5 30.5l17 12l-8 -102q-6 -4 -18 -10.5 t-50.5 -23.5t-80 -30t-103.5 -23.5t-123 -10.5q-145 0 -253 71.5t-149 208.5q-53 -136 -158 -208t-243 -72q-198 0 -326.5 143t-128.5 379zM199 502q0 -215 101 -329t257 -114t257 114t101 329t-101 328.5t-257 113.5t-257 -113.5t-101 -328.5zM1012 598h612 q0 180 -74.5 264t-203.5 84q-135 0 -226 -88.5t-108 -259.5z" />
<glyph unicode="&#x178;" horiz-adv-x="1462" d="M2 1358v76h539v-76h-224l418 -744l420 744h-229v76h534v-76h-207l-471 -826v-456h232v-76h-559v76h231v456l-477 826h-207zM475 1602v190h146v-190h-146zM852 1602v190h145v-190h-145z" />
<glyph unicode="&#x2c6;" horiz-adv-x="843" d="M82 1188l305 307h70l305 -307l-57 -53l-283 270l-283 -270z" />
<glyph unicode="&#x2dc;" horiz-adv-x="794" d="M82 1171q0 126 51 187q45 53 125 53q39 0 81.5 -25.5t73 -56.5t68.5 -56.5t70 -25.5q40 0 63 34.5t23 123.5h76q-1 -70 -14 -117t-37.5 -71t-51.5 -33.5t-63 -9.5q-41 0 -85 24.5t-74.5 54t-66 54t-61.5 24.5q-22 0 -37 -5t-31 -20t-24 -49t-8 -86h-78z" />
<glyph unicode="&#x2000;" horiz-adv-x="967" />
<glyph unicode="&#x2001;" horiz-adv-x="1935" />
<glyph unicode="&#x2002;" horiz-adv-x="967" />
<glyph unicode="&#x2003;" horiz-adv-x="1935" />
<glyph unicode="&#x2004;" horiz-adv-x="645" />
<glyph unicode="&#x2005;" horiz-adv-x="483" />
<glyph unicode="&#x2006;" horiz-adv-x="322" />
<glyph unicode="&#x2007;" horiz-adv-x="322" />
<glyph unicode="&#x2008;" horiz-adv-x="241" />
<glyph unicode="&#x2009;" horiz-adv-x="387" />
<glyph unicode="&#x200a;" horiz-adv-x="107" />
<glyph unicode="&#x2010;" horiz-adv-x="835" d="M119 584v75h598v-75h-598z" />
<glyph unicode="&#x2011;" horiz-adv-x="835" d="M119 584v75h598v-75h-598z" />
<glyph unicode="&#x2012;" horiz-adv-x="835" d="M119 584v75h598v-75h-598z" />
<glyph unicode="&#x2013;" horiz-adv-x="1329" d="M119 584v75h1091v-75h-1091z" />
<glyph unicode="&#x2014;" horiz-adv-x="2009" d="M119 584v75h1771v-75h-1771z" />
<glyph unicode="&#x2018;" horiz-adv-x="454" d="M109 870v256l180 308h76l-127 -308h86v-256h-215z" />
<glyph unicode="&#x2019;" horiz-adv-x="438" d="M96 870l127 308h-86v256h215v-256l-180 -308h-76z" />
<glyph unicode="&#x201a;" horiz-adv-x="489" d="M96 -307l127 307h-86v256h215v-256l-180 -307h-76z" />
<glyph unicode="&#x201c;" horiz-adv-x="811" d="M109 870v256l180 308h76l-127 -308h86v-256h-215zM465 870v256l180 308h76l-127 -308h86v-256h-215z" />
<glyph unicode="&#x201d;" horiz-adv-x="794" d="M96 870l127 308h-86v256h215v-256l-180 -308h-76zM453 870l127 308h-86v256h215v-256l-181 -308h-75z" />
<glyph unicode="&#x201e;" horiz-adv-x="845" d="M96 -307l127 307h-86v256h215v-256l-180 -307h-76zM453 -307l127 307h-86v256h215v-256l-181 -307h-75z" />
<glyph unicode="&#x2022;" horiz-adv-x="804" d="M100 721q0 126 87.5 214.5t213.5 88.5t215 -88.5t89 -214.5t-89 -213.5t-215 -87.5t-213.5 87.5t-87.5 213.5z" />
<glyph unicode="&#x2026;" horiz-adv-x="1738" d="M137 0v256h215v-256h-215zM762 0v256h215v-256h-215zM1386 0v256h216v-256h-216z" />
<glyph unicode="&#x202f;" horiz-adv-x="387" />
<glyph unicode="&#x2039;" horiz-adv-x="591" d="M43 494v18l360 494h117l-364 -496v-14l364 -496h-117z" />
<glyph unicode="&#x203a;" horiz-adv-x="591" d="M72 0l364 496v14l-364 496h116l361 -494v-18l-361 -494h-116z" />
<glyph unicode="&#x205f;" horiz-adv-x="483" />
<glyph unicode="&#x20ac;" horiz-adv-x="1316" d="M82 506v74h166q-4 35 -4 108q0 32 4 98h-166v74h172q35 275 163 419t328 144q63 0 119 -19t96.5 -49.5t68 -62.5t44.5 -65l23 196h73v-417h-73q-2 7 -5.5 19.5t-17.5 48t-31 68t-46 72.5t-62.5 68.5t-82 48t-101.5 19.5q-172 0 -269 -122.5t-127 -367.5h535v-74h-543 q-2 -31 -2 -94q0 -42 4 -112h541v-74h-531q68 -447 433 -447q80 0 153.5 18t121.5 43.5t85 51t53 43.5l17 18l-19 -114q-6 -6 -17 -15t-50.5 -33t-84.5 -42.5t-119.5 -33.5t-154.5 -15q-213 0 -347 131t-173 395h-174z" />
<glyph unicode="&#x2122;" horiz-adv-x="2318" d="M84 1141l22 293h781l20 -293h-65l-25 223h-280v-758h206v-69h-495v69h207v758h-279l-26 -223h-66zM1044 537v69h189v758h-189v70h263l317 -473l318 473h262v-70h-189v-758h189v-69h-461v69h190v686l-280 -415h-58l-280 415v-686h190v-69h-461z" />
<glyph unicode="&#xe000;" horiz-adv-x="1003" d="M0 0v1004h1004v-1004h-1004z" />
</font>
</defs>
</svg>
