<?xml version="1.0" standalone="no"?>
<!DOCTYPE svg PUBLIC "-//W3C//DTD SVG 1.1//EN" "http://www.w3.org/Graphics/SVG/1.1/DTD/svg11.dtd" >
<svg xmlns="http://www.w3.org/2000/svg">
<metadata></metadata>
<defs>
<font id="outsidersmedium" horiz-adv-x="1132" >
<font-face units-per-em="2048" ascent="1536" descent="-512" />
<missing-glyph horiz-adv-x="481" />
<glyph unicode="&#xfb01;" horiz-adv-x="1353" d="M66 885v129h180v110q0 95 25 172t67 128t100 85.5t122.5 50t135.5 15.5q85 0 158 -23t132.5 -68.5t93.5 -123t34 -178.5h-168q0 129 -65.5 192.5t-184.5 63.5q-136 0 -209 -79t-73 -224v-121h704v-897h207v-117h-561v117h188v768h-538v-768h217v-117h-555v117h170v768 h-180z" />
<glyph unicode="&#xfb02;" horiz-adv-x="1372" d="M66 885v129h180v110q0 118 37.5 207.5t102 141t143 77t169.5 25.5q87 0 162.5 -23t139 -70.5t100.5 -130.5t37 -192v-1042h206v-117h-561v117h189v1046q0 130 -72 202.5t-205 72.5q-137 0 -208.5 -77.5t-71.5 -225.5v-121h313v-129h-313v-768h217v-117h-555v117h170v768 h-180z" />
<glyph horiz-adv-x="2048" />
<glyph horiz-adv-x="2048" />
<glyph unicode="&#xd;" horiz-adv-x="2048" />
<glyph unicode=" "  horiz-adv-x="481" />
<glyph unicode="&#x09;" horiz-adv-x="481" />
<glyph unicode="&#xa0;" horiz-adv-x="481" />
<glyph unicode="!" horiz-adv-x="600" d="M160 0v299h282v-299h-282zM170 1434h258l-61 -971h-136z" />
<glyph unicode="&#x22;" horiz-adv-x="815" d="M117 809l20 625h205l-94 -625h-131zM512 809l23 625h204l-94 -625h-133z" />
<glyph unicode="#" horiz-adv-x="1298" d="M53 463l29 131h274l54 231h-275l37 131h272l107 478h147l-106 -478h239l111 478h150l-113 -478h276l-32 -131h-279l-51 -231h276l-28 -131h-277l-102 -463h-150l103 463h-238l-106 -463h-152l109 463h-275zM504 594h241l54 231h-242z" />
<glyph unicode="$" horiz-adv-x="1140" d="M94 1055q0 91 33 162t91.5 115t131 69t160.5 33l4 208h123l-4 -206q206 -6 373 -74v-332h-142q-9 86 -20 238q-75 25 -213 32l-8 -507q90 -27 136.5 -43.5t115 -50.5t102 -70.5t60 -95.5t26.5 -134q0 -170 -116.5 -282.5t-338.5 -130.5l-4 -246h-121l4 242 q-65 0 -128.5 8.5t-107.5 20t-79.5 23.5t-52.5 20l-17 7v340h140l22 -241q91 -43 225 -43l9 540q-70 19 -121.5 38.5t-108 52.5t-92 73t-59 100t-23.5 134zM260 1069q0 -95 63 -150.5t179 -91.5l6 469q-114 -12 -181 -70.5t-67 -156.5zM612 121q118 14 192 73t83 162 q0 39 -6.5 71t-17 55t-30 42t-38 31.5t-48 24.5t-54 20t-61.5 19q-9 3 -14 4z" />
<glyph unicode="%" horiz-adv-x="1501" d="M82 1100q0 161 81 247.5t202 86.5q120 0 201 -86.5t81 -247.5q0 -160 -81 -247t-201 -87q-121 0 -202 87t-81 247zM133 51l1159 1407l88 -76l-1153 -1407zM219 1100q0 -106 39 -161.5t107 -55.5q67 0 107 55.5t40 161.5t-40 161.5t-107 55.5q-68 0 -107 -55.5t-39 -161.5 zM852 315q0 161 81 247.5t202 86.5q120 0 201 -86.5t81 -247.5q0 -160 -81 -247.5t-201 -87.5q-121 0 -202 87.5t-81 247.5zM989 315q0 -106 39 -161.5t107 -55.5q67 0 107 55.5t40 161.5t-40 161.5t-107 55.5q-68 0 -107 -55.5t-39 -161.5z" />
<glyph unicode="&#x26;" horiz-adv-x="1628" d="M70 324q0 67 23.5 128.5t54.5 104t82.5 87t86 67.5t86.5 55q-100 95 -152 186.5t-52 190.5q0 85 36.5 154.5t116 114t189.5 44.5q81 0 144.5 -24t101 -64.5t56.5 -89t19 -102.5q0 -41 -10 -78.5t-30.5 -66.5t-37.5 -49.5t-45 -40.5t-37.5 -26t-29.5 -18l-103 82 q82 45 115 90q33 44 33 94q0 27 -9 54.5t-28 54t-56 43t-87 16.5q-85 0 -138 -49t-53 -147q0 -47 23 -91.5t96 -125.5q176 -192 530 -496q142 179 238 395h-258v131h602v-131h-172q-7 -10 -53 -96t-113.5 -193.5t-140.5 -191.5q90 -82 201 -146.5t217 -83.5l-89 -133 q-103 22 -204 81t-230 165q-51 -51 -98 -88.5t-110.5 -74.5t-141 -56.5t-164.5 -19.5q-200 0 -304.5 97.5t-104.5 246.5zM238 334q0 -101 67 -158t187 -57q214 0 401 190q-127 108 -393 359q-56 -32 -97.5 -63t-81.5 -72t-61.5 -91.5t-21.5 -107.5z" />
<glyph unicode="'" horiz-adv-x="417" d="M117 809l20 625h205l-94 -625h-131z" />
<glyph unicode="(" horiz-adv-x="602" d="M82 684q0 125 30 256t70.5 230.5t95.5 196.5t92 150.5t72 96.5l131 -66q-46 -66 -79 -117.5t-83 -146t-81.5 -179.5t-55.5 -198t-24 -223t24 -223t55.5 -198t81.5 -179.5t83 -146t79 -117.5l-131 -66q-35 43 -72 96.5t-92 150.5t-95.5 196.5t-70.5 230.5t-30 256z" />
<glyph unicode=")" horiz-adv-x="602" d="M29 -180q46 66 79 117.5t83 146t81.5 179.5t55.5 198t24 223t-24 223t-55.5 198t-81.5 179.5t-83 146t-79 117.5l131 66q35 -43 72 -96.5t92 -150.5t95.5 -196.5t70.5 -230.5t30 -256t-30 -256t-70.5 -230.5t-95.5 -196.5t-92 -150.5t-72 -96.5z" />
<glyph unicode="*" horiz-adv-x="1091" d="M78 1059l67 162l336 -158l-28 381h186l-27 -381l336 158l66 -162l-359 -111l291 -309l-149 -102l-250 327l-252 -327l-150 102l291 309z" />
<glyph unicode="+" horiz-adv-x="1120" d="M72 639v139h411v416h152v-416h414v-139h-414v-416h-152v416h-411z" />
<glyph unicode="," horiz-adv-x="544" d="M88 -326l129 326h-86v299h283v-279l-193 -346h-133z" />
<glyph unicode="-" horiz-adv-x="882" d="M111 578v137h659v-137h-659z" />
<glyph unicode="." horiz-adv-x="544" d="M131 0v299h283v-299h-283z" />
<glyph unicode="/" horiz-adv-x="1064" d="M35 -162l870 1723l109 -52l-864 -1728z" />
<glyph unicode="0" horiz-adv-x="1214" d="M117 709q0 178 38 319.5t105.5 230t155 135t190.5 46.5t191 -46.5t156 -135t106.5 -230t38.5 -319.5q0 -143 -25.5 -262.5t-70 -205t-106.5 -145t-135 -88t-155 -28.5q-103 0 -190.5 46t-155 135t-105.5 229.5t-38 318.5zM283 713q0 -291 89.5 -444.5t233.5 -153.5 q145 0 234.5 153.5t89.5 444.5q0 289 -89 440.5t-235 151.5q-145 0 -234 -151t-89 -441z" />
<glyph unicode="1" horiz-adv-x="997" d="M94 1081v152l434 194h95v-1298h342v-129h-861v129h353v1116z" />
<glyph unicode="2" d="M96 0v117l371 383q82 85 122.5 128t92.5 102t74.5 92.5t46.5 76.5t31.5 78.5t7.5 75.5q0 116 -70 173.5t-178 57.5q-89 0 -167.5 -33.5t-123.5 -76.5l-24 -263h-140v502h127l21 -104q56 47 144.5 82.5t195.5 35.5q165 0 276 -93t111 -259q0 -52 -10.5 -100t-36.5 -97.5 t-50 -87.5t-72 -93t-80 -89.5t-95 -99.5l-369 -379h737v-129h-942z" />
<glyph unicode="3" horiz-adv-x="1087" d="M80 100q72 -8 121 -8q99 0 185.5 11t165 37.5t134.5 66.5t88.5 102t32.5 140q0 130 -84.5 189.5t-226.5 59.5q-96 0 -201 -22l-12 123l483 479h-676v131h862v-135l-463 -451q228 0 356 -90.5t128 -281.5q0 -129 -60.5 -226.5t-165.5 -154.5t-233.5 -85t-277.5 -28 q-87 0 -123 8z" />
<glyph unicode="4" horiz-adv-x="1187" d="M43 360v134l565 933h174l-569 -935h528v413h162v-413h246v-132h-246v-360h-162v360h-698z" />
<glyph unicode="5" horiz-adv-x="1083" d="M88 100q74 -6 119 -6q87 0 169 12.5t160 41.5t136.5 72t93.5 108t35 145q0 133 -92.5 199.5t-243.5 66.5q-132 0 -287 -51l-59 62l106 659h750v-131h-631l-70 -426q101 29 224 29q224 0 346.5 -109.5t122.5 -294.5q0 -90 -30 -166.5t-83.5 -132.5t-123.5 -99t-154 -69.5 t-171 -39.5t-178 -13q-26 0 -50.5 1t-39 2t-16.5 1z" />
<glyph unicode="6" horiz-adv-x="1155" d="M96 520q0 106 29 210.5t76 190t109.5 165t128 140.5t133 111.5t122 82.5t97.5 50l196 -30q-514 -268 -688 -660q58 45 147.5 72t180.5 27q137 0 241.5 -61.5t157.5 -161.5t53 -220q0 -67 -17 -131t-55 -123.5t-93 -104t-136 -71t-178 -26.5q-124 0 -221.5 42.5 t-158.5 117t-92.5 171.5t-31.5 209zM256 516q0 -59 10.5 -114.5t36.5 -109t64.5 -93t99 -64t135.5 -24.5q152 0 231.5 89.5t79.5 227.5q0 141 -83 229t-240 88q-170 0 -324 -102q-10 -93 -10 -127z" />
<glyph unicode="7" horiz-adv-x="1077" d="M63 1055v354h1006v-111l-61 -86q-99 -139 -177 -267.5t-151.5 -279t-127.5 -318t-87 -347.5h-180q63 323 201.5 614t340.5 580q44 64 56 84h-660l-22 -223h-138z" />
<glyph unicode="8" horiz-adv-x="1224" d="M109 354q0 79 28.5 145t79.5 111.5t107.5 77t124.5 53.5q-130 49 -211.5 137.5t-81.5 213.5q0 160 129 254t327 94t326.5 -94t128.5 -254q0 -125 -80.5 -211.5t-212.5 -135.5q344 -117 344 -387q0 -95 -42 -169t-114 -118.5t-161.5 -67.5t-190.5 -23q-81 0 -154 14 t-136.5 43.5t-110 73t-73.5 106t-27 137.5zM268 369q0 -124 94 -191t250 -67q154 0 248 66.5t94 189.5q0 62 -25.5 113t-74 88.5t-107 64t-135.5 49.5q-163 -46 -253.5 -119t-90.5 -194zM317 1087q0 -55 22 -99t65 -76t91.5 -54.5t116.5 -44.5q143 46 220 109.5t77 164.5 q0 105 -80.5 163.5t-216.5 58.5t-215.5 -58t-79.5 -164z" />
<glyph unicode="9" horiz-adv-x="1153" d="M76 981q0 66 17 130t54.5 123.5t91.5 104.5t134.5 72t177.5 27q123 0 220.5 -43t158.5 -118.5t93 -173t32 -210.5q0 -107 -28.5 -211t-75.5 -189t-109.5 -164t-127.5 -139t-132.5 -110t-121.5 -81.5t-98 -49.5l-206 28q62 31 127.5 70.5t154.5 104.5t164.5 135t145 163.5 t106.5 188.5q-56 -45 -144 -71.5t-180 -26.5q-137 0 -242 60.5t-158.5 160t-53.5 219.5zM240 987q0 -140 83 -227.5t240 -87.5q170 0 324 102q10 97 10 127q0 76 -19 145.5t-57.5 130t-108 96.5t-161.5 36q-151 0 -231 -91.5t-80 -230.5z" />
<glyph unicode=":" horiz-adv-x="630" d="M174 0v299h283v-299h-283zM174 715v299h283v-299h-283z" />
<glyph unicode=";" horiz-adv-x="630" d="M131 -326l129 326h-86v299h283v-279l-193 -346h-133zM174 715v299h283v-299h-283z" />
<glyph unicode="&#x3c;" horiz-adv-x="1646" d="M57 694v41l662 643h209l-619 -596h1252v-135h-1252l619 -596h-209z" />
<glyph unicode="=" horiz-adv-x="952" d="M129 455v139h694v-139h-694zM129 788v138h694v-138h-694z" />
<glyph unicode="&#x3e;" horiz-adv-x="1646" d="M86 647v135h1251l-616 596h207l661 -643v-41l-661 -643h-207l616 596h-1251z" />
<glyph unicode="?" horiz-adv-x="913" d="M80 1016v424h123l14 -97q47 50 122.5 80.5t160.5 30.5q145 0 235 -85.5t90 -219.5q0 -75 -31.5 -150.5t-78 -140t-94 -126.5t-84 -132.5t-43.5 -136.5h-160q13 86 50 168.5t80.5 144.5t85.5 120.5t69.5 119t27.5 117.5q0 82 -51 129t-143 47q-68 0 -126.5 -26t-95.5 -71 l-10 -196h-141zM276 0v299h281v-299h-281z" />
<glyph unicode="@" horiz-adv-x="2072" d="M84 494q0 181 50.5 336.5t141.5 270.5t215 197t273 123t313 41q148 0 281.5 -33t247.5 -102.5t197.5 -168.5t131 -238t47.5 -304q0 -125 -27 -230.5t-73 -179.5t-108 -125.5t-131 -76t-142 -24.5q-95 0 -153.5 41t-73.5 120q-68 -75 -163 -118t-204 -43 q-142 0 -221.5 71.5t-79.5 192.5q0 45 12.5 83.5t32 68t53.5 54t67 42t83 32t90.5 23.5t100.5 17.5t103 13t107 10.5v102q0 112 -44 158.5t-146 46.5q-131 0 -231 -53l-13 -180h-131v354h117l10 -51q141 69 279 69q163 0 244 -78.5t81 -242.5v-471q0 -64 19.5 -97.5 t81.5 -33.5q40 0 80.5 15t82 51.5t73 90t51.5 139t20 191.5q0 152 -41.5 276.5t-112.5 209t-168.5 142t-205.5 83.5t-226 26q-172 0 -323.5 -56.5t-266 -162t-181 -267.5t-66.5 -360q0 -162 45 -296t123 -227t184.5 -157t228.5 -94t256 -30q169 0 364.5 47.5t360.5 150.5 l-33 -157q-155 -94 -343.5 -133t-354.5 -39q-219 0 -401 65.5t-311.5 185t-201 296.5t-71.5 393zM774 244q0 -63 43 -98t125 -35q104 0 188.5 50.5t124.5 104.5v197q-57 -5 -90.5 -9t-85 -11t-83 -15t-71 -19.5t-63 -26.5t-46 -35t-32.5 -46t-10 -57z" />
<glyph unicode="A" horiz-adv-x="1484" d="M8 0v123h193l362 1186h-235v125h567l401 -1311h189v-123h-574v123h201l-129 444h-485l-125 -444h200v-123h-565zM541 700h401l-170 609h-59z" />
<glyph unicode="B" horiz-adv-x="1400" d="M84 0v123h213v1186h-213v125h680q199 0 312.5 -93.5t113.5 -248.5q0 -111 -57 -197t-148 -135q149 -35 238.5 -130.5t89.5 -238.5q0 -166 -120 -278.5t-331 -112.5h-778zM469 133h381q135 0 212 73.5t77 186.5q0 121 -89.5 191.5t-234.5 70.5h-346v-522zM469 791h362 q84 43 136.5 113t52.5 167q0 227 -303 227h-248v-507z" />
<glyph unicode="C" horiz-adv-x="1333" d="M113 705q0 179 42.5 322t117.5 236t176 142t221 49q126 0 219 -49.5t137 -120.5l27 164h131v-455h-140q-13 54 -36 104.5t-63.5 103.5t-106.5 85.5t-148 32.5q-184 0 -292.5 -158t-108.5 -444q0 -156 34 -272t97 -185.5t146 -103t188 -33.5q60 0 122 11t109.5 27 t95.5 37.5t75.5 37.5t55 33t29.5 18l-18 -170q-8 -6 -23.5 -15t-66.5 -32.5t-105 -41.5t-135.5 -33t-161.5 -15q-287 0 -452.5 181.5t-165.5 543.5z" />
<glyph unicode="D" horiz-adv-x="1519" d="M84 0v123h213v1186l-213 -11v136h657q110 0 207.5 -25.5t182.5 -81t145.5 -137t95.5 -201t35 -266.5q0 -149 -36 -270.5t-98 -204.5t-148.5 -139.5t-185 -82.5t-208.5 -26h-647zM469 133h227q122 0 218.5 33t169.5 101.5t112 182.5t39 267q0 151 -38.5 264t-111 181.5 t-170 102t-221.5 33.5h-225v-1165z" />
<glyph unicode="E" horiz-adv-x="1409" d="M78 0v123h223v1186h-223v125h1171l15 -383h-142l-37 247h-612v-505h309v190h150v-524h-150v198h-309v-524h657l50 248h141l-31 -381h-1212z" />
<glyph unicode="F" horiz-adv-x="1298" d="M82 0v123h223v1186h-223v125h1149l16 -383h-141l-39 247h-592v-530h332v180h149v-514h-149v199h-332v-510h250v-123h-643z" />
<glyph unicode="G" horiz-adv-x="1437" d="M113 705q0 178 40.5 321t113.5 236t173 142.5t219 49.5q127 0 230.5 -49.5t146.5 -120.5l27 164h131v-455h-139q-10 40 -26.5 80.5t-47 86t-69 80t-96.5 57t-126 22.5q-184 0 -292.5 -158t-108.5 -452q0 -299 116 -442.5t334 -143.5q171 0 344 80v370h-344v136h678v-136 h-160v-442q-241 -151 -518 -151q-299 0 -462.5 180.5t-163.5 544.5z" />
<glyph unicode="H" horiz-adv-x="1658" d="M84 0v123h213v1186h-213v125h596v-125h-211v-516h721v516h-211v125h596v-125h-213v-1186h213v-123h-596v123h211v534h-721v-534h211v-123h-596z" />
<glyph unicode="I" horiz-adv-x="788" d="M80 0v123h227v1186h-227v125h629v-125h-230v-1186h230v-123h-629z" />
<glyph unicode="J" horiz-adv-x="1267" d="M104 1061q0 175 124 274t337 99h633v-125h-192v-867q0 -102 -27 -183t-84.5 -145t-158 -99t-238.5 -35q-69 0 -133.5 9t-107 21.5t-77 26.5t-49.5 23t-18 12l39 161q6 -4 17 -11.5t47 -26t75 -33t99 -26t120 -11.5q326 0 326 330v843h-256q-65 0 -118.5 -12.5t-97 -39 t-68 -73.5t-24.5 -112q0 -103 63 -161.5t177 -70.5l-37 -133q-178 15 -274.5 113.5t-96.5 251.5z" />
<glyph unicode="K" horiz-adv-x="1513" d="M84 0v123h213v1186h-213v125h584v-125h-199v-518h246l405 518h-225v125h573v-125h-170l-460 -576q61 -28 108 -75t94 -123l254 -412h183v-123h-314l-270 457q-61 103 -120.5 151.5t-141.5 48.5h-162v-534h227v-123h-612z" />
<glyph unicode="L" horiz-adv-x="1304" d="M84 0v123h213v1186h-213v125h616v-125h-231v-1176h604l51 248h142l-33 -381h-1149z" />
<glyph unicode="M" horiz-adv-x="1900" d="M84 0v123h213v1186h-213v125h467l393 -867l416 867h455v-125h-213v-1186h213v-123h-605v123h222v1130l-408 -845h-170l-391 845v-1130h221v-123h-600z" />
<glyph unicode="N" horiz-adv-x="1652" d="M84 0v123h213v1186h-213v125h444l676 -1194v1069h-211v125h590v-125h-213v-1309h-213l-696 1241v-1118h233v-123h-610z" />
<glyph unicode="O" horiz-adv-x="1431" d="M113 717q0 180 46 322t127.5 232t190.5 136.5t238 46.5t238 -46.5t191 -136.5t128.5 -232t46.5 -322q0 -181 -46.5 -323t-128.5 -231.5t-191 -136t-238 -46.5t-237.5 46.5t-190.5 136t-128 231.5t-46 323zM289 717q0 -287 116 -442.5t310 -155.5t311 156t117 442 t-116.5 440t-311.5 154q-194 0 -310 -154t-116 -440z" />
<glyph unicode="P" horiz-adv-x="1259" d="M84 0v123h213v1186h-213v125h655q203 0 327 -114.5t124 -295.5q0 -185 -129.5 -305.5t-343.5 -120.5h-248v-475h248v-123h-633zM469 731h236q147 0 231 77.5t84 207.5q0 129 -82 205.5t-211 76.5h-258v-567z" />
<glyph unicode="Q" horiz-adv-x="1429" d="M113 717q0 180 45.5 322t127.5 232t190.5 136.5t238.5 46.5q129 0 238 -46.5t190.5 -136.5t127.5 -232t46 -322q0 -374 -191 -572l230 -254l-105 -98l-237 262q-129 -75 -299 -75q-130 0 -238.5 46.5t-190.5 136t-127.5 231.5t-45.5 323zM289 717q0 -286 115.5 -442 t308.5 -156q108 0 196 51l-286 319l106 99l285 -322q127 164 127 457q0 281 -116 434.5t-310 153.5t-310 -154t-116 -440z" />
<glyph unicode="R" horiz-adv-x="1490" d="M84 0v123h213v1186h-213v125h704q203 0 327 -105.5t124 -273.5q0 -153 -100.5 -257t-264.5 -126q108 -35 205 -176l250 -373h195v-123h-320l-258 406q-66 105 -138 162t-169 57h-170v-502h227v-123h-612zM469 758h264q146 0 240 75t94 207q0 122 -80.5 190t-210.5 68 h-307v-540z" />
<glyph unicode="S" horiz-adv-x="1204" d="M125 1065q0 84 27.5 151t75 111t113 73t138 41.5t154.5 12.5q210 0 409 -82l-8 -330h-139l-14 238q-93 41 -256 41q-146 0 -240 -59t-94 -179q0 -79 45 -133t116.5 -84t158.5 -54t173.5 -52.5t158 -68.5t116.5 -113.5t45 -176.5q0 -88 -32.5 -162.5t-97 -133.5t-172 -92 t-247.5 -33q-70 0 -139.5 8.5t-118.5 20t-88 23.5t-59 20l-19 9v345h143l21 -242q112 -49 270 -49q163 0 265 68t102 192q0 62 -27.5 108t-74.5 75t-107.5 51t-127.5 40.5t-133.5 39t-127 51t-107.5 71.5t-74.5 105.5t-27.5 148.5z" />
<glyph unicode="T" horiz-adv-x="1347" d="M55 1051l11 383h1214l12 -383h-141l-25 247h-366v-1175h252v-123h-676v123h252v1175h-367l-24 -247h-142z" />
<glyph unicode="U" horiz-adv-x="1650" d="M61 1309v125h607v-125h-232v-779q0 -409 391 -409q390 0 390 409v779h-234v125h606v-125h-200v-779q0 -147 -41.5 -254.5t-119 -171.5t-179 -94t-230.5 -30q-125 0 -223.5 28.5t-175 90.5t-117.5 169t-41 254v787h-201z" />
<glyph unicode="V" horiz-adv-x="1497" d="M0 1309v125h596v-125h-219l350 -1186h47l356 1186h-219v125h586v-125h-192l-406 -1309h-301l-405 1309h-193z" />
<glyph unicode="W" horiz-adv-x="2318" d="M0 1309v125h598v-125h-223l340 -1186h8l332 1186h-174v125h587v-125h-188l336 -1186h10l328 1186h-221v125h583v-125h-190l-385 -1309h-250l-328 1174l-323 -1174h-262l-385 1309h-193z" />
<glyph unicode="X" horiz-adv-x="1466" d="M33 0v123h192l406 602l-381 584h-199v125h590v-125h-188l286 -463l299 463h-202v125h575v-125h-182l-391 -584l401 -602h197v-123h-600v123h198l-307 483l-303 -483h207v-123h-598z" />
<glyph unicode="Y" horiz-adv-x="1472" d="M-2 1309v125h600v-125h-215l365 -639l360 639h-213v125h580v-125h-193l-457 -781v-405h232v-123h-635v123h231v405l-463 781h-192z" />
<glyph unicode="Z" horiz-adv-x="1349" d="M92 0v133l930 1165h-733l-25 -247h-135l-2 383h1096v-136l-922 -1165h770l39 248h141l-22 -381h-1137z" />
<glyph unicode="[" horiz-adv-x="663" d="M176 -199v1774h514v-133h-348v-1508h348v-133h-514z" />
<glyph unicode="\" horiz-adv-x="1064" d="M51 1509l109 52l870 -1723l-115 -57z" />
<glyph unicode="]" horiz-adv-x="661" d="M-29 -66h348v1508h-348v133h514v-1774h-514v133z" />
<glyph unicode="^" horiz-adv-x="1105" d="M117 512l340 922h192l338 -922h-170l-266 768l-262 -768h-172z" />
<glyph unicode="_" horiz-adv-x="673" d="M0 -164h672v-129h-672v129z" />
<glyph unicode="`" horiz-adv-x="811" d="M98 1462l135 101l478 -355l-99 -82z" />
<glyph unicode="a" horiz-adv-x="1062" d="M74 252q0 58 20.5 105.5t53 80t83.5 57.5t103 39.5t120.5 24.5t126 14.5t130.5 6.5v104q0 114 -48 162.5t-161 48.5q-98 0 -191 -41l-22 -186h-127v366h112l13 -59q115 59 264 59q326 0 326 -319v-471q0 -79 18 -108.5t70 -29.5q47 0 94 23q-2 -19 -4 -57.5t-4 -57.5 q-62 -34 -142 -34q-160 0 -182 151q-57 -67 -144.5 -109t-197.5 -42q-146 0 -228.5 74.5t-82.5 197.5zM246 258q0 -71 45 -109t125 -38q96 0 175 46.5t120 100.5v201q-82 -5 -134.5 -10t-111.5 -14.5t-94.5 -23t-66.5 -34t-44.5 -50.5t-13.5 -69z" />
<glyph unicode="b" horiz-adv-x="1206" d="M-6 1356v119h336v-619q53 86 139.5 132t198.5 46q201 0 324.5 -141t123.5 -381q0 -237 -122.5 -384.5t-331.5 -147.5q-237 0 -343 186l-28 -166h-129v1356h-168zM324 506q0 -191 88 -291t225 -100q138 0 225.5 100t87.5 291t-88 291t-225 100t-225 -100t-88 -291z" />
<glyph unicode="c" horiz-adv-x="1030" d="M90 502q0 128 34 231t93.5 167.5t136 99t164.5 34.5t156 -32t100 -82l25 114h108v-362h-123q-30 106 -87 167.5t-158 61.5q-125 0 -204 -99t-79 -284q0 -202 92.5 -300.5t247.5 -98.5q168 0 350 114l-8 -151q-6 -4 -18 -11t-50 -24.5t-79 -31t-102 -24.5t-122 -11 q-219 0 -348 133.5t-129 388.5z" />
<glyph unicode="d" horiz-adv-x="1243" d="M88 506q0 240 129.5 384t333.5 144q106 0 189.5 -42t136.5 -120v484h-170v119h335v-1358h156v-117h-321v158q-53 -87 -141.5 -132.5t-198.5 -45.5q-204 0 -326.5 147t-122.5 379zM254 506q0 -191 88 -291t225 -100t225.5 100t88.5 291t-89 291t-227 100 q-136 0 -223.5 -100t-87.5 -291z" />
<glyph unicode="e" horiz-adv-x="1050" d="M88 496q0 246 124 392t335 146q185 0 293 -115.5t108 -328.5v-98h-690v-9q0 -180 91 -272t245 -92q182 0 364 114l-8 -153q-13 -12 -60 -33.5t-138 -44t-181 -22.5q-221 0 -352 132.5t-131 383.5zM262 618h522q-1 148 -66.5 216.5t-170.5 68.5q-118 0 -196.5 -76 t-88.5 -209z" />
<glyph unicode="f" horiz-adv-x="722" d="M72 0v117h168v768h-168v129h168v145q0 165 99.5 257.5t264.5 92.5q136 0 281 -63l-39 -139q-134 65 -240 65q-198 0 -198 -227v-131h262v-129h-262v-768h208v-117h-544z" />
<glyph unicode="g" horiz-adv-x="1120" d="M29 -174q0 105 74.5 170.5t199.5 79.5v6q-93 11 -151 60t-58 130q0 120 127 183q-69 86 -69 215q0 166 111 265t284 99q169 0 260 -88l235 232l109 -105l-242 -225q1 -3 8.5 -19.5t10.5 -24t9 -25.5t9 -32.5t5.5 -35.5t2.5 -43q0 -166 -112 -265.5t-291 -99.5 q-152 0 -254 76q-70 -43 -70 -92q0 -81 146 -101q35 -5 94 -9t113 -6t119.5 -9.5t119.5 -18.5t107.5 -32.5t90 -52t59 -77.5t22.5 -108q0 -54 -17 -103t-58 -95.5t-103 -80.5t-158.5 -54.5t-218.5 -20.5q-110 0 -198.5 17t-146.5 45.5t-97 68.5t-55.5 83.5t-16.5 92.5z M193 -156q0 -54 31 -93.5t84 -61t114.5 -31.5t132.5 -10q171 0 275 55.5t104 153.5q0 35 -15 63t-37 45.5t-58.5 30.5t-66.5 19t-74.5 9.5t-69.5 4t-64 0.5q-63 0 -118 -7t-112.5 -25.5t-91.5 -57.5t-34 -95zM311 668q0 -109 66 -172.5t172 -63.5q107 0 175.5 63.5 t68.5 174.5q0 107 -65 170t-173 63q-109 0 -176.5 -63t-67.5 -172z" />
<glyph unicode="h" horiz-adv-x="1261" d="M45 0v117h158v1239h-158v119h324v-627q108 95 200.5 140.5t200.5 45.5q69 0 122.5 -19.5t84 -48.5t50 -70t26 -78t6.5 -77v-624h168v-117h-477v117h143v612q0 78 -40 120t-120 42q-81 0 -164.5 -43t-199.5 -131v-600h178v-117h-502z" />
<glyph unicode="i" horiz-adv-x="655" d="M63 0v117h197v778h-197v119h363v-897h199v-117h-562zM233 1217v237h209v-237h-209z" />
<glyph unicode="j" horiz-adv-x="552" d="M-57 -319q2 0 28.5 -2.5t48.5 -2.5q104 0 147.5 50t43.5 176v993h-178v119h432v-119h-88v-967q0 -115 -22.5 -191.5t-71.5 -119t-114 -59.5t-161 -17q-33 0 -49 2zM184 1217v237h209v-237h-209z" />
<glyph unicode="k" horiz-adv-x="1247" d="M41 0v117h170v1239h-170v119h336v-852h108q71 0 103 -9l252 281h-176v119h524v-119h-166l-313 -336q49 -28 99 -87t114 -153l135 -202h147v-117h-278l-244 381q-73 115 -217 115h-88v-379h178v-117h-514z" />
<glyph unicode="l" horiz-adv-x="628" d="M39 0v117h188v1239h-178v119h344v-1358h199v-117h-553z" />
<glyph unicode="m" horiz-adv-x="1939" d="M74 0v117h159v778h-159v119h321v-164q104 96 194.5 140t188.5 44q117 0 183.5 -54t87.5 -138q192 192 405 192q70 0 123.5 -20.5t83 -50.5t47.5 -71.5t23.5 -77t5.5 -73.5v-624h168v-117h-478v117h144v612q0 76 -40 119t-120 43q-157 0 -344 -174v-600h178v-117h-487v117 h143v612q0 76 -40 119t-120 43q-158 0 -342 -174v-600h176v-117h-501z" />
<glyph unicode="n" horiz-adv-x="1290" d="M74 0v117h159v778h-159v119h321v-166q108 95 203 140.5t203 45.5q71 0 124.5 -20t83.5 -50t48.5 -71.5t24 -77t5.5 -74.5v-624h168v-117h-481v117h148v612q0 76 -40 119t-120 43q-84 0 -169.5 -45.5t-193.5 -128.5v-600h176v-117h-501z" />
<glyph unicode="o" d="M88 506q0 124 36.5 224.5t101 166.5t151 101.5t188.5 35.5q210 0 344.5 -140.5t134.5 -387.5q0 -124 -36.5 -224.5t-101 -166t-152 -100.5t-189.5 -35q-209 0 -343 140t-134 386zM254 506q0 -191 87.5 -291t223.5 -100q138 0 226 100t88 291t-88 291t-226 100 q-136 0 -223.5 -100t-87.5 -291z" />
<glyph unicode="p" horiz-adv-x="1255" d="M41 -334h170v1229h-170v119h334v-162q113 182 342 182q201 0 324.5 -141.5t123.5 -380.5q0 -238 -122.5 -385t-331.5 -147q-228 0 -336 174v-488h215v-117h-549v117zM373 506q0 -191 88 -291t225 -100q138 0 225.5 100t87.5 291t-88 291t-225 100t-225 -100t-88 -291z " />
<glyph unicode="q" horiz-adv-x="1206" d="M88 504q0 241 130.5 385.5t334.5 144.5q106 0 189.5 -42t136.5 -120l30 152h133v-1358h160v-117h-536v117h213v492q-53 -87 -142.5 -132.5t-199.5 -45.5q-204 0 -326.5 146.5t-122.5 377.5zM256 506q0 -191 87.5 -291t223.5 -100q138 0 227 100t89 291q0 190 -89.5 290.5 t-226.5 100.5q-136 0 -223.5 -100t-87.5 -291z" />
<glyph unicode="r" horiz-adv-x="919" d="M74 0v117h159v778h-159v119h321q-4 -148 -4 -185q215 205 344 205q32 0 86.5 -12t71.5 -21l-10 -174q-105 43 -166 43q-115 0 -318 -170v-583h226v-117h-551z" />
<glyph unicode="s" horiz-adv-x="942" d="M104 31v291h127l17 -187q18 -7 79.5 -16.5t123.5 -9.5q49 0 90.5 7.5t78 24t57.5 47t21 72.5q0 51 -32.5 86.5t-85 56t-115.5 37t-126 38t-115.5 51.5t-85 84.5t-32.5 129.5q0 134 97 212.5t268 78.5q96 0 200.5 -22t141.5 -39l-12 -260h-129l-8 172q-96 26 -191 26 q-94 0 -149.5 -39t-55.5 -108q0 -51 33 -87t85 -56t115.5 -37t127 -38.5t115.5 -52t85 -85t33 -129.5q0 -137 -105 -218t-306 -81q-95 0 -196 17t-151 34z" />
<glyph unicode="t" horiz-adv-x="786" d="M18 885v129h203v362h166v-362h361l-37 -129h-324v-600q0 -81 29.5 -121.5t115.5 -40.5q32 0 70.5 6.5t64 13.5t52.5 15.5t31 9.5l-7 -141q-4 -1 -25 -7.5t-41.5 -11.5t-49 -11t-62 -9.5t-65.5 -3.5q-67 0 -118 16.5t-81 42.5t-48.5 64t-25 76t-6.5 83v619h-203z" />
<glyph unicode="u" horiz-adv-x="1247" d="M39 895v119h332v-713q0 -182 170 -182q173 0 340 182v594h-197v119h363v-897h149v-117h-313v166q-162 -186 -383 -186q-70 0 -124 20t-85 50t-51 71.5t-26.5 79.5t-6.5 78v616h-168z" />
<glyph unicode="v" horiz-adv-x="1173" d="M12 895v119h473v-119h-168l277 -756l274 756h-170v119h463v-119h-133l-336 -895h-205l-337 895h-138z" />
<glyph unicode="w" horiz-adv-x="1794" d="M12 895v119h484v-119h-181l226 -745l250 745h-140v119h484v-119h-142l262 -745l226 745h-185v119h484v-119h-146l-286 -895h-187l-274 799l-256 -799h-189l-286 895h-144z" />
<glyph unicode="x" horiz-adv-x="1189" d="M47 0v117h146l305 401l-289 377h-152v119h461v-119h-117l211 -285l209 285h-157v119h466v-119h-141l-295 -389l310 -389h137v-117h-477v117h151l-227 303l-221 -303h151v-117h-471z" />
<glyph unicode="y" horiz-adv-x="1200" d="M4 -279q88 -36 189 -36q115 0 194 82q23 24 45 60t31.5 56t28 64t18.5 45l-360 903h-140v119h484v-119h-166l274 -723l287 723h-178v119h479v-119h-135l-375 -893q-42 -100 -65 -149.5t-67.5 -120t-87.5 -103.5t-110 -58.5t-151 -25.5q-51 0 -98.5 7.5t-68.5 15.5l-22 8z " />
<glyph unicode="z" horiz-adv-x="1081" d="M86 0v121l694 764h-493l-13 -234h-139v363h836v-131l-682 -756h532l29 219h139l-14 -346h-889z" />
<glyph unicode="{" horiz-adv-x="710" d="M23 657v129h108q123 0 123 160v629h473v-129h-307v-488q0 -98 -42.5 -159.5t-111.5 -75.5q68 -14 111 -77t43 -161v-553h307v-129h-473v693q0 78 -35.5 119.5t-83.5 41.5h-112z" />
<glyph unicode="|" horiz-adv-x="493" d="M174 -264v1960h145v-1960h-145z" />
<glyph unicode="}" horiz-adv-x="710" d="M-14 -68h303v553q0 98 43.5 161t111.5 77q-69 14 -112 75.5t-43 159.5v488h-303v129h471v-629q0 -82 33.5 -121t89.5 -39h108v-129h-113q-52 0 -85 -40.5t-33 -120.5v-693h-471v129z" />
<glyph unicode="~" horiz-adv-x="1122" d="M121 557q0 66 14.5 118t36.5 82.5t52 50.5t57.5 27t56.5 7q61 0 155 -36.5t178 -73t122 -36.5q73 0 73 138h146q0 -66 -13.5 -117t-34.5 -81.5t-50.5 -50.5t-57 -27t-57.5 -7q-65 0 -159 34.5t-177 69.5t-121 35q-76 0 -76 -133h-145z" />
<glyph unicode="&#xa1;" horiz-adv-x="567" d="M143 713v301h283v-301h-283zM154 -420l63 971h133l64 -971h-260z" />
<glyph unicode="&#xa2;" horiz-adv-x="1030" d="M90 504q0 243 114 380t296 148l16 338h115l-17 -348q52 -13 95 -40.5t65 -61.5l25 114h108v-362h-123q-50 182 -176 219l-35 -772h15q176 0 358 114l-8 -151q-6 -4 -17 -10.5t-48.5 -23.5t-78 -30.5t-102.5 -25t-125 -12.5l-14 -345h-115l15 355q-167 30 -265 161 t-98 353zM256 516q0 -154 55.5 -246.5t149.5 -128.5l33 756q-108 -18 -173 -115.5t-65 -265.5z" />
<glyph unicode="&#xa3;" horiz-adv-x="1509" d="M102 98q0 59 41 95t95 36q58 0 116 -28q46 25 109 254h-232v139h269q18 72 20 78q6 22 14.5 58t14.5 58h-318v138h347q61 253 129 366q120 199 348 199q99 0 197 -36.5t155 -100.5l-86 -137q-55 60 -107.5 89t-130.5 29q-87 0 -142 -46t-105 -165q-41 -97 -70 -198h373 v-138h-410q-25 -102 -51 -194h461v-139h-508q-64 -165 -146 -267q120 -37 291 -71.5t242 -34.5q69 0 115.5 40.5t56.5 133.5l141 -33q-27 -305 -307 -305q-212 0 -608 145q-73 -90 -174 -90q-71 0 -105.5 36.5t-34.5 88.5z" />
<glyph unicode="&#xa4;" horiz-adv-x="1343" d="M96 254l230 223q-82 110 -82 262q0 146 71 250l-219 215l97 101l223 -218q106 74 256 74q148 0 254 -74l223 218l98 -101l-219 -215q70 -103 70 -250q0 -156 -82 -262l231 -223l-98 -102l-238 231q-101 -61 -239 -61q-141 0 -242 61l-237 -231zM401 741q0 -147 75 -218.5 t196 -71.5q123 0 196.5 71.5t73.5 218.5q0 146 -74 218.5t-196 72.5t-196.5 -72.5t-74.5 -218.5z" />
<glyph unicode="&#xa5;" horiz-adv-x="1638" d="M59 1298v136h621v-136h-215l362 -616l363 616h-213v136h602v-136h-213l-231 -389h254v-118h-326l-105 -181h431v-118h-480v-359h242v-133h-657v133h241v359h-483v118h432l-106 181h-326v118h252l-232 389h-213z" />
<glyph unicode="&#xa6;" horiz-adv-x="499" d="M178 -264v880h144v-880h-144zM178 834v862h144v-862h-144z" />
<glyph unicode="&#xa7;" horiz-adv-x="1251" d="M63 782q0 93 54.5 167t169.5 116q1 0 15 -10.5t27 -19.5t36.5 -21t46.5 -21q-185 -65 -185 -192q0 -46 26 -82t69.5 -61t100.5 -46.5t119.5 -41.5t125 -41.5t119.5 -51t100.5 -67t69.5 -92.5t26 -123q0 -103 -58 -174.5t-146.5 -102.5t-198.5 -31q-167 0 -306 50l5 284 h127l10 -184q72 -21 164 -21q61 0 112.5 14t90 53.5t38.5 100.5q0 62 -42 108t-108.5 75t-147.5 54t-162 54t-147.5 65.5t-108.5 98t-42 143.5zM266 1350q0 80 34 142t91.5 97.5t127.5 53.5t149 18q167 0 309 -51l-4 -285h-129l-10 186q-72 21 -164 21q-99 0 -164.5 -41 t-65.5 -127q0 -65 41.5 -113t107 -77t145.5 -53.5t160 -53t145.5 -64.5t107 -97.5t41.5 -143.5q0 -94 -54.5 -168t-166.5 -115q-1 1 -10 7t-17.5 12t-22.5 14.5t-27 15.5t-29 13.5t-30 9.5q102 35 145.5 89t43.5 110q0 50 -32.5 88.5t-85.5 62.5t-120.5 48t-138.5 43.5 t-138.5 51t-120.5 69t-85.5 98.5t-32.5 139z" />
<glyph unicode="&#xa8;" horiz-adv-x="839" d="M119 1178v237h203v-237h-203zM514 1178v237h205v-237h-205z" />
<glyph unicode="&#xa9;" horiz-adv-x="1636" d="M88 717q0 147 38.5 271t105.5 211t159 148t199 90t225 29q149 0 279.5 -47t232.5 -137.5t161.5 -236t59.5 -328.5q0 -147 -39 -270.5t-107 -211t-161 -148.5t-200.5 -90.5t-225.5 -29.5q-148 0 -278 47.5t-231 138.5t-159.5 236t-58.5 328zM207 717q0 -159 47 -284.5 t130.5 -204t192.5 -119.5t238 -41t239.5 41t195 119.5t132.5 204t48 284.5t-48 284.5t-132.5 204t-195 119.5t-239.5 41t-238 -41t-192.5 -119.5t-130.5 -204t-47 -284.5zM414 719q0 109 29.5 196t80 141.5t116.5 83.5t142 29q80 0 139 -28t83 -66l22 94h92v-309h-106 q-7 30 -19 58t-35.5 62.5t-65 55.5t-95.5 21q-106 0 -172 -84t-66 -242q0 -172 78.5 -254t212.5 -82q150 0 293 92l-8 -129l-15 -9t-42 -21t-66.5 -26t-86 -20.5t-102.5 -9.5q-186 0 -297.5 114t-111.5 333z" />
<glyph unicode="&#xaa;" horiz-adv-x="954" d="M90 844q0 53 19.5 95t57 69.5t81 47t103 30.5t110 17t114.5 9v86q0 76 -34 108.5t-103 32.5q-79 0 -164 -34l-16 -142h-115v279h109l8 -35q81 47 211 47q250 0 250 -250v-344q0 -62 14.5 -87t59.5 -25q46 0 69 14l-2 -103q-64 -22 -114 -22q-72 0 -109.5 36t-44.5 87 q-110 -123 -272 -123q-111 0 -171.5 57t-60.5 150zM233 854q0 -44 30 -74t89 -30q61 0 122 32.5t101 77.5v152q-51 -5 -86.5 -9.5t-79 -12t-71.5 -19t-54 -27t-38.5 -38.5t-12.5 -52z" />
<glyph unicode="&#xab;" horiz-adv-x="1079" d="M35 494v32l371 488h194l-381 -508l381 -506h-194zM451 494v32l372 488h195l-381 -508l381 -506h-195z" />
<glyph unicode="&#xac;" horiz-adv-x="962" d="M115 608v137h719v-374h-148v237h-571z" />
<glyph unicode="&#xad;" horiz-adv-x="882" d="M111 578v137h659v-137h-659z" />
<glyph unicode="&#xae;" horiz-adv-x="1636" d="M88 717q0 147 38.5 271t105.5 211t159 148t199 90t225 29q149 0 279.5 -47t232.5 -137.5t161.5 -236t59.5 -328.5q0 -147 -39 -270.5t-107 -211t-161 -148.5t-200.5 -90.5t-225.5 -29.5q-148 0 -278 47.5t-231 138.5t-159.5 236t-58.5 328zM207 717q0 -159 47 -284.5 t130.5 -204t192.5 -119.5t238 -41t239 41t194 119.5t131.5 204t47.5 284.5t-47.5 284.5t-131.5 204t-194 119.5t-239 41t-238 -41t-192.5 -119.5t-130.5 -204t-47 -284.5zM424 297v102h111v672h-111v100h389q150 0 239 -59t89 -172q0 -90 -57 -155t-166 -83q69 -22 126 -106 l132 -197h88v-102h-189l-149 248q-40 65 -82.5 94t-114.5 29h-57v-269h119v-102h-367zM672 768h125q92 0 147 42t55 122q0 139 -186 139h-141v-303z" />
<glyph unicode="&#xaf;" horiz-adv-x="825" d="M102 1184v129h621v-129h-621z" />
<glyph unicode="&#xb0;" horiz-adv-x="782" d="M78 1120q0 153 85.5 233.5t227.5 80.5q140 0 225.5 -80.5t85.5 -233.5q0 -152 -85.5 -231.5t-225.5 -79.5q-142 0 -227.5 79.5t-85.5 231.5zM211 1120q0 -105 48.5 -156t131.5 -51q84 0 133 51.5t49 155.5q0 106 -49 157.5t-133 51.5q-83 0 -131.5 -51.5t-48.5 -157.5z " />
<glyph unicode="&#xb1;" horiz-adv-x="1171" d="M98 0v137h975v-137h-975zM98 754v139h410v416h151v-416h414v-139h-414v-416h-151v416h-410z" />
<glyph unicode="&#xb2;" horiz-adv-x="741" d="M104 705v90l207 192q108 100 146.5 151.5t38.5 104.5q0 107 -119 107q-73 0 -137 -41l-15 -152h-100v289h96l6 -47q78 55 172 55q96 0 160 -52t64 -145q0 -72 -45 -138t-154 -167l-158 -145h369v-102h-531z" />
<glyph unicode="&#xb3;" horiz-adv-x="690" d="M98 1331v103h488v-97l-232 -196q115 0 182.5 -52t67.5 -153q0 -126 -107.5 -200t-297.5 -74q-29 0 -53 2t-27 2l-13 104q50 -4 87 -4q55 0 104 9t91.5 27.5t67.5 52t25 77.5q0 61 -44.5 90t-117.5 29q-41 0 -114 -13v82l246 211h-353z" />
<glyph unicode="&#xb4;" horiz-adv-x="729" d="M53 1208l475 355l138 -101l-514 -336z" />
<glyph unicode="&#xb5;" horiz-adv-x="1323" d="M74 895v119h332v-713q0 -182 169 -182t340 182v594h-198v119h364v-897h148v-117h-311v166q-77 -88 -173.5 -137t-193.5 -49q-104 0 -158 47v-457h-151v1325h-168z" />
<glyph unicode="&#xb6;" horiz-adv-x="1542" d="M94 719q0 143 36 262t98 201.5t146 140t180 84.5t200 27h710v-136h-233v-1165h233v-133h-700q-105 0 -201.5 26.5t-182 83.5t-149 140t-100.5 203.5t-37 265.5z" />
<glyph unicode="&#xb7;" horiz-adv-x="567" d="M141 563v301h285v-301h-285z" />
<glyph unicode="&#xb8;" horiz-adv-x="729" d="M98 -498l39 111q89 -62 201 -62q67 0 106 25t39 74q0 123 -262 131l98 262l113 -4l-59 -162q252 -37 252 -223q0 -58 -25.5 -102t-67.5 -68t-90 -35.5t-100 -11.5q-69 0 -136 18t-108 47z" />
<glyph unicode="&#xb9;" horiz-adv-x="714" d="M106 1231v115l248 100h74v-639h188v-102h-499v102h194v508z" />
<glyph unicode="&#xba;" horiz-adv-x="888" d="M82 1044q0 199 99.5 304.5t262.5 105.5q162 0 262.5 -106t100.5 -304t-100.5 -302.5t-262.5 -104.5q-163 0 -262.5 104t-99.5 303zM233 1044q0 -142 58 -216t153 -74t153 74t58 216q0 141 -58 215t-153 74t-153 -74t-58 -215z" />
<glyph unicode="&#xbb;" horiz-adv-x="1079" d="M63 0l381 506l-381 508h195l373 -488v-32l-373 -494h-195zM481 0l381 506l-381 508h195l371 -488v-32l-371 -494h-195z" />
<glyph unicode="&#xbc;" horiz-adv-x="1878" d="M90 1231v115l248 100h74v-639h190v-102h-502v102h197v508zM238 29l1439 1499l72 -68l-1436 -1499zM1196 188v101l277 467h126l-276 -465h238v186h114v-186h137v-103h-137v-188h-114v188h-365z" />
<glyph unicode="&#xbd;" horiz-adv-x="1908" d="M82 1231v115l223 100h98v-639h189v-102h-500v102h195v508zM227 29l1440 1499l74 -68l-1436 -1499zM1303 0v90l206 193q108 100 146.5 151.5t38.5 104.5q0 106 -119 106q-73 0 -137 -41l-15 -151h-100v288h96l6 -47q79 56 172 56q96 0 160 -52t64 -145q0 -72 -45 -138 t-154 -167l-158 -146h369v-102h-530z" />
<glyph unicode="&#xbe;" horiz-adv-x="1853" d="M88 1331v103h487v-97l-231 -196q115 0 182.5 -52t67.5 -153q0 -126 -108 -200t-298 -74q-29 0 -52.5 2t-26.5 2l-13 104q50 -4 86 -4q75 0 137.5 15t107 54t44.5 97q0 61 -44.5 90t-117.5 29q-41 0 -114 -13v82l245 211h-352zM213 29l1440 1499l73 -68l-1435 -1499z M1174 188v101l276 467h125l-277 -465h240v186h115v-186h135v-103h-135v-188h-115v188h-364z" />
<glyph unicode="&#xbf;" horiz-adv-x="917" d="M115 -137q0 74 31.5 149.5t78 140t94 127.5t84 134t43.5 137h158q-12 -86 -49.5 -168.5t-80.5 -144.5t-85 -120.5t-70 -120t-28 -118.5q0 -82 52 -128t144 -46q68 0 126.5 25.5t95.5 70.5l10 195h141v-422h-123l-14 94q-46 -50 -122.5 -79t-162.5 -29q-146 0 -234.5 85.5 t-88.5 217.5zM381 713v301h283v-301h-283z" />
<glyph unicode="&#xc0;" horiz-adv-x="1484" d="M8 0v123h193l362 1186h-235v125h567l401 -1311h189v-123h-574v123h201l-129 444h-485l-125 -444h200v-123h-565zM471 1892l135 101l477 -355l-98 -82zM541 700h401l-170 609h-59z" />
<glyph unicode="&#xc1;" horiz-adv-x="1484" d="M8 0v123h193l362 1186h-235v125h567l401 -1311h189v-123h-574v123h201l-129 444h-485l-125 -444h200v-123h-565zM444 1638l476 355l137 -101l-514 -336zM541 700h401l-170 609h-59z" />
<glyph unicode="&#xc2;" horiz-adv-x="1484" d="M8 0v123h193l362 1186h-235v125h567l401 -1311h189v-123h-574v123h201l-129 444h-485l-125 -444h200v-123h-565zM358 1649l324 321h96l324 -321l-94 -86l-279 256l-276 -256zM541 700h401l-170 609h-59z" />
<glyph unicode="&#xc3;" horiz-adv-x="1484" d="M8 0v123h193l362 1186h-235v125h567l401 -1311h189v-123h-574v123h201l-129 444h-485l-125 -444h200v-123h-565zM379 1602q0 129 55.5 192.5t140.5 63.5q56 0 112.5 -30t105.5 -59.5t86 -29.5q39 0 50 26.5t11 85.5h133q0 -252 -186 -252q-60 0 -118.5 28.5t-105 56.5 t-77.5 28q-33 0 -52.5 -27t-19.5 -83h-135zM541 700h401l-170 609h-59z" />
<glyph unicode="&#xc4;" horiz-adv-x="1484" d="M8 0v123h193l362 1186h-235v125h567l401 -1311h189v-123h-574v123h201l-129 444h-485l-125 -444h200v-123h-565zM422 1608v237h203v-237h-203zM541 700h401l-170 609h-59zM817 1608v237h205v-237h-205z" />
<glyph unicode="&#xc5;" horiz-adv-x="1484" d="M8 0v123h193l362 1186h-235v125h176q-76 79 -76 208q0 144 89 223t224 79q134 0 225 -79t91 -223q0 -92 -39 -158.5t-107 -103.5l385 -1257h189v-123h-574v123h201l-129 444h-485l-125 -444h200v-123h-565zM541 700h401l-170 609h-59zM580 1642q0 -92 46.5 -136 t114.5 -44q67 0 114.5 44.5t47.5 135.5t-47.5 136t-114.5 45q-68 0 -114.5 -44.5t-46.5 -136.5z" />
<glyph unicode="&#xc6;" horiz-adv-x="2181" d="M-23 0v123h218l600 1186h-273v125h1499l17 -383h-142l-38 247h-613v-505h309v190h150v-524h-150v198h-309v-524h658l51 248h141l-33 -381h-1210v123h223v442h-487l-211 -442h227v-123h-627zM653 700h422v598h-127z" />
<glyph unicode="&#xc7;" horiz-adv-x="1333" d="M113 707q0 178 42.5 320.5t117.5 235.5t176 142t221 49q124 0 218 -48.5t138 -121.5l27 164h131v-455h-140q-13 54 -36 104.5t-63.5 103.5t-106.5 85.5t-148 32.5q-184 0 -292.5 -158t-108.5 -444q0 -156 34 -272t97 -185.5t146 -103t188 -33.5q60 0 122 11t109.5 27 t95.5 37.5t75.5 37.5t55 33t29.5 18l-18 -170q-8 -6 -23 -15t-65.5 -32.5t-105.5 -41.5t-139.5 -33t-170.5 -15h-4l-37 -103q252 -37 252 -223q0 -58 -25.5 -102t-67.5 -68t-90 -35.5t-100 -11.5q-69 0 -136 18t-108 47l39 111q89 -62 201 -62q67 0 106 25t39 74 q0 123 -262 131l78 209q-227 35 -359 215t-132 502z" />
<glyph unicode="&#xc8;" horiz-adv-x="1411" d="M80 0v123h223v1186h-223v125h1171l15 -383h-142l-37 247h-612v-505h309v190h150v-524h-150v198h-309v-524h658l49 248h141l-31 -381h-1212zM399 1892l136 101l477 -355l-99 -82z" />
<glyph unicode="&#xc9;" horiz-adv-x="1411" d="M80 0v123h223v1186h-223v125h1171l15 -383h-142l-37 247h-612v-505h309v190h150v-524h-150v198h-309v-524h658l49 248h141l-31 -381h-1212zM481 1638l475 355l138 -101l-514 -336z" />
<glyph unicode="&#xca;" horiz-adv-x="1411" d="M80 0v123h223v1186h-223v125h1171l15 -383h-142l-37 247h-612v-505h309v190h150v-524h-150v198h-309v-524h658l49 248h141l-31 -381h-1212zM350 1649l324 321h96l324 -321l-95 -86l-278 256l-277 -256z" />
<glyph unicode="&#xcb;" horiz-adv-x="1411" d="M80 0v123h223v1186h-223v125h1171l15 -383h-142l-37 247h-612v-505h309v190h150v-524h-150v198h-309v-524h658l49 248h141l-31 -381h-1212zM436 1608v237h203v-237h-203zM831 1608v237h205v-237h-205z" />
<glyph unicode="&#xcc;" horiz-adv-x="788" d="M80 0v123h227v1186h-227v125h629v-125h-230v-1186h230v-123h-629zM92 1892l135 101l478 -355l-99 -82z" />
<glyph unicode="&#xcd;" horiz-adv-x="788" d="M80 0v123h227v1186h-227v125h629v-125h-230v-1186h230v-123h-629zM90 1638l475 355l137 -101l-514 -336z" />
<glyph unicode="&#xce;" horiz-adv-x="788" d="M23 1649l323 321h96l324 -321l-94 -86l-279 256l-276 -256zM80 0v123h227v1186h-227v125h629v-125h-230v-1186h230v-123h-629z" />
<glyph unicode="&#xcf;" horiz-adv-x="788" d="M80 0v123h227v1186h-227v125h629v-125h-230v-1186h230v-123h-629zM94 1608v237h203v-237h-203zM489 1608v237h205v-237h-205z" />
<glyph unicode="&#xd0;" horiz-adv-x="1511" d="M78 0v123h233v534h-223v136h223v516h-233v125h655q140 0 258 -41.5t211 -125t146 -223t53 -321.5q0 -149 -36 -270.5t-98.5 -204.5t-149 -139.5t-185 -82.5t-209.5 -26h-645zM481 133h209q121 0 217 33t169 101.5t112 182.5t39 267q0 297 -143 439t-396 142h-207v-505 h393v-136h-393v-524z" />
<glyph unicode="&#xd1;" horiz-adv-x="1652" d="M84 0v123h213v1186h-213v125h444l676 -1194v1069h-211v125h590v-125h-213v-1309h-213l-696 1241v-1118h233v-123h-610zM506 1602q0 129 55.5 192.5t140.5 63.5q56 0 112.5 -30t105.5 -59.5t86 -29.5q39 0 50 26.5t11 85.5h133q0 -252 -186 -252q-60 0 -118.5 28.5 t-105 56.5t-77.5 28q-33 0 -52.5 -27t-19.5 -83h-135z" />
<glyph unicode="&#xd2;" horiz-adv-x="1431" d="M113 717q0 180 46 322t127.5 232t190.5 136.5t238 46.5t238 -46.5t191 -136.5t128.5 -232t46.5 -322q0 -181 -46.5 -323t-128.5 -231.5t-191 -136t-238 -46.5t-237.5 46.5t-190.5 136t-128 231.5t-46 323zM289 717q0 -287 116 -442.5t310 -155.5t311 156t117 442 t-116.5 440t-311.5 154q-194 0 -310 -154t-116 -440zM408 1882l135 100l477 -354l-98 -82z" />
<glyph unicode="&#xd3;" horiz-adv-x="1431" d="M113 717q0 180 46 322t127.5 232t190.5 136.5t238 46.5t238 -46.5t191 -136.5t128.5 -232t46.5 -322q0 -181 -46.5 -323t-128.5 -231.5t-191 -136t-238 -46.5t-237.5 46.5t-190.5 136t-128 231.5t-46 323zM289 717q0 -287 116 -442.5t310 -155.5t311 156t117 442 t-116.5 440t-311.5 154q-194 0 -310 -154t-116 -440zM406 1628l475 354l137 -100l-514 -336z" />
<glyph unicode="&#xd4;" horiz-adv-x="1431" d="M113 717q0 180 46 322t127.5 232t190.5 136.5t238 46.5t238 -46.5t191 -136.5t128.5 -232t46.5 -322q0 -181 -46.5 -323t-128.5 -231.5t-191 -136t-238 -46.5t-237.5 46.5t-190.5 136t-128 231.5t-46 323zM289 717q0 -287 116 -442.5t310 -155.5t311 156t117 442 t-116.5 440t-311.5 154q-194 0 -310 -154t-116 -440zM340 1638l324 322h96l323 -322l-94 -86l-278 256l-277 -256z" />
<glyph unicode="&#xd5;" horiz-adv-x="1431" d="M113 717q0 180 46 322t127.5 232t190.5 136.5t238 46.5t238 -46.5t191 -136.5t128.5 -232t46.5 -322q0 -181 -46.5 -323t-128.5 -231.5t-191 -136t-238 -46.5t-237.5 46.5t-190.5 136t-128 231.5t-46 323zM289 717q0 -287 116 -442.5t310 -155.5t311 156t117 442 t-116.5 440t-311.5 154q-194 0 -310 -154t-116 -440zM365 1591q0 129 55.5 192.5t140.5 63.5q44 0 89.5 -18.5t77 -40.5t69 -40.5t67.5 -18.5q39 0 50.5 27t11.5 85h133q0 -252 -187 -252q-60 0 -118.5 28.5t-105 56.5t-77.5 28q-32 0 -51.5 -27.5t-19.5 -83.5h-135z" />
<glyph unicode="&#xd6;" horiz-adv-x="1431" d="M113 717q0 180 46 322t127.5 232t190.5 136.5t238 46.5t238 -46.5t191 -136.5t128.5 -232t46.5 -322q0 -181 -46.5 -323t-128.5 -231.5t-191 -136t-238 -46.5t-237.5 46.5t-190.5 136t-128 231.5t-46 323zM289 717q0 -287 116 -442.5t310 -155.5t311 156t117 442 t-116.5 440t-311.5 154q-194 0 -310 -154t-116 -440zM414 1597v238h202v-238h-202zM809 1597v238h205v-238h-205z" />
<glyph unicode="&#xd7;" horiz-adv-x="1325" d="M86 1161l111 105l465 -455l466 455l109 -105l-463 -452l463 -451l-107 -108l-468 454l-465 -454l-109 108l467 451z" />
<glyph unicode="&#xd8;" horiz-adv-x="1429" d="M113 717q0 180 46 322t128 232t189.5 136.5t234.5 46.5q151 0 282 -70l131 250l115 -59l-139 -262q219 -199 219 -598q0 -180 -46.5 -321.5t-128.5 -231t-191 -136t-238 -46.5q-164 0 -287 69l-125 -235l-117 61l136 252q-99 92 -154 241.5t-55 348.5zM293 717 q0 -282 113 -436l514 970q-91 60 -207 60q-192 0 -306 -154.5t-114 -439.5zM500 182q94 -63 215 -63q193 0 308.5 156t115.5 440q0 290 -121 446z" />
<glyph unicode="&#xd9;" horiz-adv-x="1650" d="M61 1309v125h607v-125h-232v-779q0 -409 391 -409q390 0 390 409v779h-234v125h606v-125h-200v-779q0 -147 -41.5 -254.5t-119 -171.5t-179 -94t-230.5 -30q-125 0 -223.5 28.5t-175 90.5t-117.5 169t-41 254v787h-201zM516 1892l135 101l477 -355l-98 -82z" />
<glyph unicode="&#xda;" horiz-adv-x="1650" d="M61 1309v125h607v-125h-232v-779q0 -409 391 -409q390 0 390 409v779h-234v125h606v-125h-200v-779q0 -147 -41.5 -254.5t-119 -171.5t-179 -94t-230.5 -30q-125 0 -223.5 28.5t-175 90.5t-117.5 169t-41 254v787h-201zM516 1638l475 355l137 -101l-514 -336z" />
<glyph unicode="&#xdb;" horiz-adv-x="1650" d="M61 1309v125h607v-125h-232v-779q0 -409 391 -409q390 0 390 409v779h-234v125h606v-125h-200v-779q0 -147 -41.5 -254.5t-119 -171.5t-179 -94t-230.5 -30q-125 0 -223.5 28.5t-175 90.5t-117.5 169t-41 254v787h-201zM453 1649l323 321h96l324 -321l-94 -86l-279 256 l-276 -256z" />
<glyph unicode="&#xdc;" horiz-adv-x="1650" d="M61 1309v125h607v-125h-232v-779q0 -409 391 -409q390 0 390 409v779h-234v125h606v-125h-200v-779q0 -147 -41.5 -254.5t-119 -171.5t-179 -94t-230.5 -30q-125 0 -223.5 28.5t-175 90.5t-117.5 169t-41 254v787h-201zM522 1608v237h203v-237h-203zM918 1608v237h204 v-237h-204z" />
<glyph unicode="&#xdd;" horiz-adv-x="1472" d="M-2 1309v125h600v-125h-215l365 -639l360 639h-213v125h580v-125h-193l-457 -781v-405h232v-123h-635v123h231v405l-463 781h-192zM467 1638l475 355l137 -101l-514 -336z" />
<glyph unicode="&#xde;" horiz-adv-x="1329" d="M80 0v123h231v1186h-231v125h663v-125h-260v-164h324q202 0 326 -116t124 -298q0 -185 -129 -303.5t-342 -118.5h-303v-186h260v-123h-663zM483 442h299q138 0 221.5 77.5t83.5 207.5q0 129 -82 206t-210 77h-312v-568z" />
<glyph unicode="&#xdf;" horiz-adv-x="1275" d="M74 0v117h172v768h-172v129h172v55q0 94 26 174.5t77.5 144t135.5 100t193 36.5q166 0 278.5 -80t112.5 -225q0 -60 -21.5 -117t-52 -100t-61.5 -82t-52.5 -78t-21.5 -72q0 -32 19.5 -60.5t51 -51.5t69.5 -46.5t76.5 -53.5t70 -65t51 -86.5t19.5 -113.5 q0 -142 -99.5 -227.5t-288.5 -85.5q-112 0 -208 24v148q107 -35 188 -35q26 0 52.5 3t62.5 13.5t62.5 28t45.5 50t19 75.5q0 44 -20 81.5t-51.5 64t-70.5 51.5t-77.5 51t-70 54.5t-51.5 69t-20 89.5q0 51 22.5 101.5t54 92t63.5 81.5t54.5 86.5t22.5 92.5q0 74 -54.5 126 t-170.5 52q-55 0 -99 -14t-72 -34t-48 -52t-29.5 -58t-15 -63t-6 -56t-0.5 -46v-1057h-338z" />
<glyph unicode="&#xe0;" horiz-adv-x="1062" d="M74 252q0 58 20.5 105.5t53 80t83.5 57.5t103 39.5t120.5 24.5t126 14.5t130.5 6.5v104q0 114 -48 162.5t-161 48.5q-98 0 -191 -41l-22 -186h-127v366h112l13 -59q115 59 264 59q326 0 326 -319v-471q0 -79 18 -108.5t70 -29.5q47 0 94 23q-2 -19 -4 -57.5t-4 -57.5 q-62 -34 -142 -34q-160 0 -182 151q-57 -67 -144.5 -109t-197.5 -42q-146 0 -228.5 74.5t-82.5 197.5zM231 1462l136 101l477 -355l-99 -82zM246 258q0 -71 45 -109t125 -38q96 0 175 46.5t120 100.5v201q-82 -5 -134.5 -10t-111.5 -14.5t-94.5 -23t-66.5 -34t-44.5 -50.5 t-13.5 -69z" />
<glyph unicode="&#xe1;" horiz-adv-x="1062" d="M74 252q0 58 20.5 105.5t53 80t83.5 57.5t103 39.5t120.5 24.5t126 14.5t130.5 6.5v104q0 114 -48 162.5t-161 48.5q-98 0 -191 -41l-22 -186h-127v366h112l13 -59q115 59 264 59q326 0 326 -319v-471q0 -79 18 -108.5t70 -29.5q47 0 94 23q-2 -19 -4 -57.5t-4 -57.5 q-62 -34 -142 -34q-160 0 -182 151q-57 -67 -144.5 -109t-197.5 -42q-146 0 -228.5 74.5t-82.5 197.5zM246 258q0 -71 45 -109t125 -38q96 0 175 46.5t120 100.5v201q-82 -5 -134.5 -10t-111.5 -14.5t-94.5 -23t-66.5 -34t-44.5 -50.5t-13.5 -69zM250 1208l475 355l137 -101 l-514 -336z" />
<glyph unicode="&#xe2;" horiz-adv-x="1062" d="M74 252q0 58 20.5 105.5t53 80t83.5 57.5t103 39.5t120.5 24.5t126 14.5t130.5 6.5v104q0 114 -48 162.5t-161 48.5q-98 0 -191 -41l-22 -186h-127v366h112l13 -59q115 59 264 59q326 0 326 -319v-471q0 -79 18 -108.5t70 -29.5q47 0 94 23q-2 -19 -4 -57.5t-4 -57.5 q-62 -34 -142 -34q-160 0 -182 151q-57 -67 -144.5 -109t-197.5 -42q-146 0 -228.5 74.5t-82.5 197.5zM178 1219l324 321h96l324 -321l-95 -86l-278 256l-277 -256zM246 258q0 -71 45 -109t125 -38q96 0 175 46.5t120 100.5v201q-82 -5 -134.5 -10t-111.5 -14.5t-94.5 -23 t-66.5 -34t-44.5 -50.5t-13.5 -69z" />
<glyph unicode="&#xe3;" horiz-adv-x="1062" d="M74 252q0 58 20.5 105.5t53 80t83.5 57.5t103 39.5t120.5 24.5t126 14.5t130.5 6.5v104q0 114 -48 162.5t-161 48.5q-98 0 -191 -41l-22 -186h-127v366h112l13 -59q115 59 264 59q326 0 326 -319v-471q0 -79 18 -108.5t70 -29.5q47 0 94 23q-2 -19 -4 -57.5t-4 -57.5 q-62 -34 -142 -34q-160 0 -182 151q-57 -67 -144.5 -109t-197.5 -42q-146 0 -228.5 74.5t-82.5 197.5zM176 1171q0 129 56 192.5t141 63.5q44 0 89.5 -18.5t77 -40.5t69 -40.5t67.5 -18.5q39 0 50 26.5t11 85.5h133q0 -252 -186 -252q-60 0 -118.5 28.5t-105 56.5t-77.5 28 q-33 0 -52.5 -27.5t-19.5 -83.5h-135zM246 258q0 -71 45 -109t125 -38q96 0 175 46.5t120 100.5v201q-82 -5 -134.5 -10t-111.5 -14.5t-94.5 -23t-66.5 -34t-44.5 -50.5t-13.5 -69z" />
<glyph unicode="&#xe4;" horiz-adv-x="1062" d="M74 252q0 58 20.5 105.5t53 80t83.5 57.5t103 39.5t120.5 24.5t126 14.5t130.5 6.5v104q0 114 -48 162.5t-161 48.5q-98 0 -191 -41l-22 -186h-127v366h112l13 -59q115 59 264 59q326 0 326 -319v-471q0 -79 18 -108.5t70 -29.5q47 0 94 23q-2 -19 -4 -57.5t-4 -57.5 q-62 -34 -142 -34q-160 0 -182 151q-57 -67 -144.5 -109t-197.5 -42q-146 0 -228.5 74.5t-82.5 197.5zM223 1178v237h203v-237h-203zM246 258q0 -71 45 -109t125 -38q96 0 175 46.5t120 100.5v201q-82 -5 -134.5 -10t-111.5 -14.5t-94.5 -23t-66.5 -34t-44.5 -50.5 t-13.5 -69zM618 1178v237h205v-237h-205z" />
<glyph unicode="&#xe5;" horiz-adv-x="1062" d="M74 252q0 58 20.5 105.5t53 80t83.5 57.5t103 39.5t120.5 24.5t126 14.5t130.5 6.5v104q0 114 -48 162.5t-161 48.5q-98 0 -191 -41l-22 -186h-127v366h112l13 -59q115 59 264 59q326 0 326 -319v-471q0 -79 18 -108.5t70 -29.5q47 0 94 23q-2 -19 -4 -57.5t-4 -57.5 q-62 -34 -142 -34q-160 0 -182 151q-57 -67 -144.5 -109t-197.5 -42q-146 0 -228.5 74.5t-82.5 197.5zM246 258q0 -71 45 -109t125 -38q96 0 175 46.5t120 100.5v201q-82 -5 -134.5 -10t-111.5 -14.5t-94.5 -23t-66.5 -34t-44.5 -50.5t-13.5 -69zM266 1386q0 122 77 189 t192 67q114 0 192 -67t78 -189t-78 -189t-192 -67q-115 0 -192 67t-77 189zM395 1386q0 -79 40.5 -116t99.5 -37q58 0 97.5 37t39.5 116q0 77 -40 114.5t-97 37.5q-59 0 -99.5 -37.5t-40.5 -114.5z" />
<glyph unicode="&#xe6;" horiz-adv-x="1646" d="M78 264q0 59 18.5 106.5t47.5 79.5t79 56.5t97.5 38.5t119.5 23.5t129.5 13.5t141.5 8v102q0 110 -51 156.5t-152 46.5q-104 0 -197 -41l-22 -186h-125v366h112l13 -59q115 59 250 59q218 0 290 -149q113 149 326 149q33 0 65 -4t72 -16t74.5 -31.5t68.5 -53.5t58 -79 t38.5 -111.5t14.5 -146.5v-96l-659 -23q6 -175 87.5 -266.5t233.5 -91.5q54 0 109 11.5t94.5 28.5t71.5 34t49 29l16 11l-8 -143q-5 -4 -14.5 -11.5t-42.5 -25.5t-71 -32t-99.5 -25.5t-128.5 -11.5q-250 0 -375 174q-166 -174 -401 -174q-160 0 -245 75.5t-85 208.5z M250 270q0 -78 50 -116.5t142 -38.5q55 0 106 15t83 33t61.5 43.5t39.5 37t18 22.5q-27 65 -37 201q-14 -1 -41 -3q-80 -6 -118.5 -9.5t-98 -12t-88 -21t-60.5 -32.5t-44.5 -49.5t-12.5 -69.5zM887 602l491 16q0 150 -61 217.5t-164 67.5q-113 0 -189.5 -71t-76.5 -209v-21z " />
<glyph unicode="&#xe7;" horiz-adv-x="1030" d="M90 502q0 128 34 231t93.5 167.5t136 99t164.5 34.5t156 -32t100 -82l25 114h108v-362h-123q-30 106 -87 167.5t-158 61.5q-125 0 -204 -99t-79 -284q0 -202 92.5 -300.5t247.5 -98.5q168 0 350 114l-8 -151q-6 -4 -17.5 -11t-50 -24.5t-79.5 -31t-104.5 -24.5 t-127.5 -11h-16l-37 -103q252 -37 252 -223q0 -58 -25.5 -102t-67.5 -68t-90 -35.5t-100 -11.5q-69 0 -136 18t-108 47l39 111q89 -62 201 -62q67 0 106 25t39 74q0 123 -262 131l80 213q-161 35 -252.5 165t-91.5 343z" />
<glyph unicode="&#xe8;" horiz-adv-x="1050" d="M88 496q0 246 124 392t335 146q185 0 293 -115.5t108 -328.5v-98h-690v-9q0 -180 91 -272t245 -92q182 0 364 114l-8 -153q-13 -12 -60 -33.5t-138 -44t-181 -22.5q-221 0 -352 132.5t-131 383.5zM262 618h522q-1 148 -66.5 216.5t-170.5 68.5q-118 0 -196.5 -76 t-88.5 -209zM272 1462l136 101l477 -355l-99 -82z" />
<glyph unicode="&#xe9;" horiz-adv-x="1050" d="M88 496q0 246 124 392t335 146q185 0 293 -115.5t108 -328.5v-98h-690v-9q0 -180 91 -272t245 -92q182 0 364 114l-8 -153q-13 -12 -60 -33.5t-138 -44t-181 -22.5q-221 0 -352 132.5t-131 383.5zM252 1208l475 355l137 -101l-514 -336zM262 618h522q-1 148 -66.5 216.5 t-170.5 68.5q-118 0 -196.5 -76t-88.5 -209z" />
<glyph unicode="&#xea;" horiz-adv-x="1050" d="M88 496q0 246 124 392t335 146q185 0 293 -115.5t108 -328.5v-98h-690v-9q0 -180 91 -272t245 -92q182 0 364 114l-8 -153q-13 -12 -60 -33.5t-138 -44t-181 -22.5q-221 0 -352 132.5t-131 383.5zM182 1219l324 321h96l324 -321l-95 -86l-278 256l-277 -256zM262 618h522 q-1 148 -66.5 216.5t-170.5 68.5q-118 0 -196.5 -76t-88.5 -209z" />
<glyph unicode="&#xeb;" horiz-adv-x="1050" d="M88 496q0 246 124 392t335 146q185 0 293 -115.5t108 -328.5v-98h-690v-9q0 -180 91 -272t245 -92q182 0 364 114l-8 -153q-13 -12 -60 -33.5t-138 -44t-181 -22.5q-221 0 -352 132.5t-131 383.5zM233 1178v237h203v-237h-203zM262 618h522q-1 148 -66.5 216.5 t-170.5 68.5q-118 0 -196.5 -76t-88.5 -209zM629 1178v237h205v-237h-205z" />
<glyph unicode="&#xec;" horiz-adv-x="655" d="M37 1462l135 101l477 -355l-98 -82zM63 0v117h197v778h-197v119h363v-897h199v-117h-562z" />
<glyph unicode="&#xed;" horiz-adv-x="655" d="M35 1208l475 355l137 -101l-514 -336zM63 0v117h197v778h-197v119h363v-897h199v-117h-562z" />
<glyph unicode="&#xee;" horiz-adv-x="655" d="M-29 1219l324 321h96l324 -321l-94 -86l-279 256l-276 -256zM63 0v117h197v778h-197v119h363v-897h199v-117h-562z" />
<glyph unicode="&#xef;" horiz-adv-x="655" d="M27 1178v237h202v-237h-202zM63 0v117h197v778h-197v119h363v-897h199v-117h-562zM422 1178v237h205v-237h-205z" />
<glyph unicode="&#xf0;" horiz-adv-x="1138" d="M88 502q0 247 126.5 389.5t326.5 142.5q167 0 258 -94q-73 152 -232 301l-182 -106l-55 92l153 88q-117 96 -264 170l178 55q128 -70 221 -147l211 120l52 -92l-179 -104q154 -150 248 -349t94 -429q0 -138 -36 -245.5t-100.5 -175.5t-151 -103t-191.5 -35 q-101 0 -186.5 32.5t-151 96t-102.5 164.5t-37 229zM256 508q0 -192 87 -292.5t224 -100.5t224.5 100t87.5 289q0 192 -89.5 292.5t-226.5 100.5q-136 0 -221.5 -99.5t-85.5 -289.5z" />
<glyph unicode="&#xf1;" horiz-adv-x="1290" d="M74 0v117h159v778h-159v119h321v-166q108 95 203 140.5t203 45.5q71 0 124.5 -20t83.5 -50t48.5 -71.5t24 -77t5.5 -74.5v-624h168v-117h-481v117h148v612q0 76 -40 119t-120 43q-84 0 -169.5 -45.5t-193.5 -128.5v-600h176v-117h-501zM299 1171q0 129 56 192.5t141 63.5 q44 0 89.5 -18.5t77 -40.5t69 -40.5t67.5 -18.5q39 0 50 26.5t11 85.5h133q0 -252 -186 -252q-60 0 -118.5 28.5t-105 56.5t-77.5 28q-33 0 -52.5 -27.5t-19.5 -83.5h-135z" />
<glyph unicode="&#xf2;" d="M88 506q0 124 36.5 224.5t101 166.5t151 101.5t188.5 35.5q210 0 344.5 -140.5t134.5 -387.5q0 -124 -36.5 -224.5t-101 -166t-152 -100.5t-189.5 -35q-209 0 -343 140t-134 386zM254 506q0 -191 87.5 -291t223.5 -100q138 0 226 100t88 291t-88 291t-226 100 q-136 0 -223.5 -100t-87.5 -291zM260 1462l135 101l477 -355l-98 -82z" />
<glyph unicode="&#xf3;" d="M88 506q0 124 36.5 224.5t101 166.5t151 101.5t188.5 35.5q210 0 344.5 -140.5t134.5 -387.5q0 -124 -36.5 -224.5t-101 -166t-152 -100.5t-189.5 -35q-209 0 -343 140t-134 386zM254 506q0 -191 87.5 -291t223.5 -100q138 0 226 100t88 291t-88 291t-226 100 q-136 0 -223.5 -100t-87.5 -291zM258 1208l475 355l137 -101l-514 -336z" />
<glyph unicode="&#xf4;" d="M88 506q0 124 36.5 224.5t101 166.5t151 101.5t188.5 35.5q210 0 344.5 -140.5t134.5 -387.5q0 -124 -36.5 -224.5t-101 -166t-152 -100.5t-189.5 -35q-209 0 -343 140t-134 386zM193 1219l323 321h96l324 -321l-94 -86l-279 256l-276 -256zM254 506q0 -191 87.5 -291 t223.5 -100q138 0 226 100t88 291t-88 291t-226 100q-136 0 -223.5 -100t-87.5 -291z" />
<glyph unicode="&#xf5;" d="M88 506q0 124 36.5 224.5t101 166.5t151 101.5t188.5 35.5q210 0 344.5 -140.5t134.5 -387.5q0 -124 -36.5 -224.5t-101 -166t-152 -100.5t-189.5 -35q-209 0 -343 140t-134 386zM217 1171q0 129 56 192.5t141 63.5q44 0 89.5 -18.5t77 -40.5t69 -40.5t67.5 -18.5 q39 0 50 26.5t11 85.5h133q0 -252 -186 -252q-60 0 -118.5 28.5t-105 56.5t-77.5 28q-33 0 -52.5 -27.5t-19.5 -83.5h-135zM254 506q0 -191 87.5 -291t223.5 -100q138 0 226 100t88 291t-88 291t-226 100q-136 0 -223.5 -100t-87.5 -291z" />
<glyph unicode="&#xf6;" d="M88 506q0 124 36.5 224.5t101 166.5t151 101.5t188.5 35.5q210 0 344.5 -140.5t134.5 -387.5q0 -124 -36.5 -224.5t-101 -166t-152 -100.5t-189.5 -35q-209 0 -343 140t-134 386zM254 506q0 -191 87.5 -291t223.5 -100q138 0 226 100t88 291t-88 291t-226 100 q-136 0 -223.5 -100t-87.5 -291zM266 1178v237h203v-237h-203zM662 1178v237h204v-237h-204z" />
<glyph unicode="&#xf7;" horiz-adv-x="1118" d="M92 639v139h934v-139h-934zM436 233v252h242v-252h-242zM436 932v252h242v-252h-242z" />
<glyph unicode="&#xf8;" d="M88 506q0 246 133.5 387t339.5 141q123 0 225 -51l138 244l96 -53l-141 -250q165 -146 165 -418q0 -246 -134 -386t-343 -140q-112 0 -202 38l-138 -239l-96 55l137 242q-180 143 -180 430zM254 506q0 -193 92 -295l369 647q-65 39 -150 39q-136 0 -223.5 -100 t-87.5 -291zM436 143q61 -28 131 -28q136 0 224 100.5t88 288.5q0 175 -80 278z" />
<glyph unicode="&#xf9;" horiz-adv-x="1247" d="M39 895v119h332v-713q0 -182 170 -182q173 0 340 182v594h-197v119h363v-897h149v-117h-313v166q-162 -186 -383 -186q-70 0 -124 20t-85 50t-51 71.5t-26.5 79.5t-6.5 78v616h-168zM315 1462l136 101l477 -355l-99 -82z" />
<glyph unicode="&#xfa;" horiz-adv-x="1247" d="M39 895v119h332v-713q0 -182 170 -182q173 0 340 182v594h-197v119h363v-897h149v-117h-313v166q-162 -186 -383 -186q-70 0 -124 20t-85 50t-51 71.5t-26.5 79.5t-6.5 78v616h-168zM367 1208l475 355l137 -101l-514 -336z" />
<glyph unicode="&#xfb;" horiz-adv-x="1247" d="M39 895v119h332v-713q0 -182 170 -182q173 0 340 182v594h-197v119h363v-897h149v-117h-313v166q-162 -186 -383 -186q-70 0 -124 20t-85 50t-51 71.5t-26.5 79.5t-6.5 78v616h-168zM244 1219l323 321h97l323 -321l-94 -86l-279 256l-276 -256z" />
<glyph unicode="&#xfc;" horiz-adv-x="1247" d="M39 895v119h332v-713q0 -182 170 -182q173 0 340 182v594h-197v119h363v-897h149v-117h-313v166q-162 -186 -383 -186q-70 0 -124 20t-85 50t-51 71.5t-26.5 79.5t-6.5 78v616h-168zM295 1178v237h203v-237h-203zM690 1178v237h205v-237h-205z" />
<glyph unicode="&#xfd;" horiz-adv-x="1200" d="M4 -279q88 -36 189 -36q115 0 194 82q23 24 45 60t31.5 56t28 64t18.5 45l-360 903h-140v119h484v-119h-166l274 -723l287 723h-178v119h479v-119h-135l-375 -893q-42 -100 -65 -149.5t-67.5 -120t-87.5 -103.5t-110 -58.5t-151 -25.5q-51 0 -98.5 7.5t-68.5 15.5l-22 8z M309 1208l475 355l138 -101l-514 -336z" />
<glyph unicode="&#xfe;" horiz-adv-x="1206" d="M-8 -334h170v1690h-170v119h334v-623q113 182 342 182q201 0 324.5 -141.5t123.5 -380.5q0 -238 -122.5 -385t-331.5 -147q-228 0 -336 174v-488h215v-117h-549v117zM324 506q0 -191 88 -291t225 -100q138 0 225.5 100t87.5 291t-88 291t-225 100t-225 -100t-88 -291z " />
<glyph unicode="&#xff;" horiz-adv-x="1200" d="M4 -279q88 -36 189 -36q115 0 194 82q23 24 45 60t31.5 56t28 64t18.5 45l-360 903h-140v119h484v-119h-166l274 -723l287 723h-178v119h479v-119h-135l-375 -893q-42 -100 -65 -149.5t-67.5 -120t-87.5 -103.5t-110 -58.5t-151 -25.5q-51 0 -98.5 7.5t-68.5 15.5l-22 8z M293 1178v237h203v-237h-203zM688 1178v237h205v-237h-205z" />
<glyph unicode="&#x152;" horiz-adv-x="2215" d="M111 717q0 181 53 321t146 225t211.5 128t256.5 43h1270l16 -383h-141l-37 247h-624v-505h321v190h150v-524h-150v198h-321v-524h680l49 248h141l-33 -381h-1333q-137 0 -254.5 44t-207.5 130t-141.5 225.5t-51.5 317.5zM285 715q0 -151 40 -264t114 -182t171 -102.5 t217 -33.5h265v1165h-269q-255 0 -396.5 -148t-141.5 -435z" />
<glyph unicode="&#x153;" horiz-adv-x="1845" d="M88 504q0 125 36.5 226t101 167t151 101.5t186.5 35.5q133 0 235.5 -59.5t157.5 -171.5q54 112 153 171.5t230 59.5q184 0 293 -116t109 -328v-98h-699q0 -188 94 -280.5t248 -92.5q106 0 203.5 36t163.5 78l-6 -153q-20 -14 -63.5 -34t-136 -43t-183.5 -23 q-144 0 -250.5 56.5t-157.5 170.5q-58 -108 -158 -167.5t-235 -59.5q-136 0 -242 60t-168.5 180t-62.5 284zM256 506q0 -190 88 -289.5t225 -99.5q138 0 224 99t86 290t-86.5 291t-223.5 100t-225 -100t-88 -291zM1049 618h528q-1 147 -67.5 214t-174.5 67 q-111 0 -190.5 -69.5t-95.5 -211.5z" />
<glyph unicode="&#x178;" horiz-adv-x="1472" d="M-2 1309v125h600v-125h-215l365 -639l360 639h-213v125h580v-125h-193l-457 -781v-405h232v-123h-635v123h231v405l-463 781h-192zM444 1573v237h203v-237h-203zM840 1573v237h204v-237h-204z" />
<glyph unicode="&#x2c6;" horiz-adv-x="942" d="M98 1219l324 321h96l324 -321l-94 -86l-279 256l-276 -256z" />
<glyph unicode="&#x2dc;" horiz-adv-x="892" d="M98 1171q0 129 56 192.5t141 63.5q44 0 89.5 -18.5t77 -40.5t69 -40.5t67.5 -18.5q39 0 50 26.5t11 85.5h134q0 -252 -187 -252q-60 0 -118.5 28.5t-105 56.5t-77.5 28q-33 0 -52.5 -27.5t-19.5 -83.5h-135z" />
<glyph unicode="&#x2000;" horiz-adv-x="996" />
<glyph unicode="&#x2001;" horiz-adv-x="1993" />
<glyph unicode="&#x2002;" horiz-adv-x="996" />
<glyph unicode="&#x2003;" horiz-adv-x="1993" />
<glyph unicode="&#x2004;" horiz-adv-x="664" />
<glyph unicode="&#x2005;" horiz-adv-x="498" />
<glyph unicode="&#x2006;" horiz-adv-x="332" />
<glyph unicode="&#x2007;" horiz-adv-x="332" />
<glyph unicode="&#x2008;" horiz-adv-x="249" />
<glyph unicode="&#x2009;" horiz-adv-x="398" />
<glyph unicode="&#x200a;" horiz-adv-x="110" />
<glyph unicode="&#x2010;" horiz-adv-x="882" d="M111 578v137h659v-137h-659z" />
<glyph unicode="&#x2011;" horiz-adv-x="882" d="M111 578v137h659v-137h-659z" />
<glyph unicode="&#x2012;" horiz-adv-x="882" d="M111 578v137h659v-137h-659z" />
<glyph unicode="&#x2013;" horiz-adv-x="1370" d="M111 578v137h1146v-137h-1146z" />
<glyph unicode="&#x2014;" horiz-adv-x="2039" d="M111 578v137h1818v-137h-1818z" />
<glyph unicode="&#x2018;" horiz-adv-x="466" d="M90 809v278l193 347h131l-127 -324h86v-301h-283z" />
<glyph unicode="&#x2019;" horiz-adv-x="466" d="M51 809l127 324h-86v301h283v-279l-193 -346h-131z" />
<glyph unicode="&#x201a;" horiz-adv-x="544" d="M88 -326l129 326h-86v299h283v-279l-193 -346h-133z" />
<glyph unicode="&#x201c;" horiz-adv-x="923" d="M104 809v278l193 347h133l-127 -326h84v-299h-283zM514 809v278l193 347h133l-127 -326h86v-299h-285z" />
<glyph unicode="&#x201d;" horiz-adv-x="905" d="M90 809l129 324h-86v301h283v-279l-193 -346h-133zM502 809l127 324h-86v301h282v-279l-192 -346h-131z" />
<glyph unicode="&#x201e;" horiz-adv-x="954" d="M88 -326l127 326h-84v299h283v-279l-193 -346h-133zM500 -326l127 326h-86v299h282v-279l-192 -346h-131z" />
<glyph unicode="&#x2022;" horiz-adv-x="835" d="M102 719q0 130 92.5 222.5t223.5 92.5q130 0 222.5 -92t92.5 -223t-92.5 -223.5t-222.5 -92.5t-223 92.5t-93 223.5z" />
<glyph unicode="&#x2026;" horiz-adv-x="1839" d="M131 0v299h281v-299h-281zM778 0v299h283v-299h-283zM1425 0v299h283v-299h-283z" />
<glyph unicode="&#x202f;" horiz-adv-x="398" />
<glyph unicode="&#x2039;" horiz-adv-x="661" d="M35 492v32l371 490h194l-381 -506l381 -508h-194z" />
<glyph unicode="&#x203a;" horiz-adv-x="661" d="M61 0l381 508l-381 506h195l371 -490v-32l-371 -492h-195z" />
<glyph unicode="&#x205f;" horiz-adv-x="498" />
<glyph unicode="&#x20ac;" horiz-adv-x="1370" d="M76 479v117h153q-4 54 -4 96q0 30 4 96h-153v117h166q40 255 172.5 394t333.5 139q121 0 205.5 -47.5t125.5 -118.5l27 139h129v-428h-137q-9 36 -21 70.5t-39 83t-61 83t-89.5 60t-121.5 25.5q-140 0 -229 -104t-115 -296h510v-117h-524q-2 -29 -2 -88q0 -46 4 -104h522 v-117h-502q77 -356 410 -356q69 0 134.5 14.5t116.5 37.5t86.5 43.5t66.5 42.5t34 24l-18 -170q-6 -5 -18.5 -14.5t-55.5 -32.5t-90.5 -41t-124 -32.5t-156.5 -14.5q-476 0 -569 499h-170z" />
<glyph unicode="&#x2122;" horiz-adv-x="2445" d="M82 1104l10 330h850l10 -330h-114l-29 215h-221v-696h207v-113h-557v113h206v696h-219l-28 -215h-115zM1098 510v113h186v696h-186v115h362l256 -441l264 441h355v-115h-187v-696h187v-113h-520v113h190v614l-231 -389h-115l-232 391v-616h191v-113h-520z" />
<glyph unicode="&#xe000;" horiz-adv-x="1013" d="M0 0v1014h1014v-1014h-1014z" />
</font>
</defs>
</svg>
