<?xml version="1.0" standalone="no"?>
<!DOCTYPE svg PUBLIC "-//W3C//DTD SVG 1.1//EN" "http://www.w3.org/Graphics/SVG/1.1/DTD/svg11.dtd" >
<svg xmlns="http://www.w3.org/2000/svg">
<metadata></metadata>
<defs>
<font id="outsidersmedium_italic" horiz-adv-x="1376" >
<font-face units-per-em="2048" ascent="1536" descent="-512" />
<missing-glyph horiz-adv-x="481" />
<glyph unicode="&#xfb01;" horiz-adv-x="1173" d="M-354 -365l100 111q12 -46 60.5 -82.5t117.5 -36.5q41 0 72.5 16t50 36.5t34.5 58t22.5 62.5t15.5 67l211 1018h-219l26 129h219l47 213q36 163 132 248.5t237 85.5q82 0 149.5 -27.5t112.5 -90t45 -151.5q0 -27 -2 -39l-157 -63q4 20 4 59q0 86 -43.5 128t-112.5 42 q-53 0 -92.5 -23t-62.5 -63.5t-34 -73.5t-20 -75l-37 -170h580q-9 -36 -109 -374.5t-137 -498.5l277 127l-33 -137q-26 -17 -68 -42t-133.5 -67t-136.5 -42q-35 0 -58.5 21t-23.5 52q0 26 17.5 104.5t47 187.5t56.5 204.5t57.5 202t38.5 133.5h-401l-217 -1059 q-69 -342 -357 -342q-118 0 -189.5 49t-86.5 102z" />
<glyph unicode="&#xfb02;" horiz-adv-x="1247" d="M-354 -365l100 111q12 -46 60.5 -82.5t117.5 -36.5q41 0 72.5 16t50 36.5t34.5 58t22.5 62.5t15.5 67l211 1018h-219l24 129h221l47 213q35 157 130 245.5t241 88.5q56 0 103 -12.5t77 -32.5t44.5 -33t25.5 -27l233 19q-15 -55 -95 -347.5t-152 -561.5t-109 -425l275 127 l-33 -137q-10 -6 -26 -16.5t-62 -36.5t-86.5 -45.5t-86.5 -36t-75 -16.5q-38 0 -61 22t-23 55q0 45 57 265l264 985l-75 -52q-51 160 -187 160q-46 0 -83 -17.5t-60 -42t-40.5 -59t-25.5 -59.5t-14 -53l-37 -170h285l-31 -129h-280l-217 -1059q-34 -167 -118 -254.5 t-235 -87.5q-64 0 -117.5 15.5t-85.5 40t-51 48.5t-26 47z" />
<glyph horiz-adv-x="2048" />
<glyph horiz-adv-x="2048" />
<glyph unicode="&#xd;" horiz-adv-x="2048" />
<glyph unicode=" "  horiz-adv-x="481" />
<glyph unicode="&#x09;" horiz-adv-x="481" />
<glyph unicode="&#xa0;" horiz-adv-x="481" />
<glyph unicode="!" horiz-adv-x="608" d="M35 0l78 299h278l-78 -299h-278zM227 463l193 971h258l-318 -971h-133z" />
<glyph unicode="&#x22;" horiz-adv-x="833" d="M205 809l168 625h225l-260 -625h-133zM602 809l166 625h225l-260 -625h-131z" />
<glyph unicode="#" horiz-adv-x="1355" d="M68 465l49 127h270l88 233h-268l53 129h268l183 482h143l-180 -482h307l182 482h146l-183 -482h273l-51 -129h-275l-88 -233h272l-49 -127h-272l-174 -465h-148l174 465h-305l-178 -465h-149l180 465h-268zM532 592h308l88 233h-307z" />
<glyph unicode="$" horiz-adv-x="1169" d="M39 55l92 385h133l-51 -284q54 -26 186 -41l160 577q-75 36 -124 66.5t-95 74.5t-68 101t-22 129q0 180 138.5 285.5t385.5 105.5l53 188h121l-55 -194q186 -17 291 -68l-97 -356h-129l48 266q-56 19 -150 29l-145 -520q47 -23 74.5 -37.5t66 -36.5t60.5 -38.5 t49.5 -40.5t42.5 -47t29 -52t20 -62.5t6 -72.5q0 -88 -33.5 -161.5t-89.5 -123.5t-131.5 -85t-157.5 -51t-168 -16l-65 -235h-121l67 244q-81 7 -161 25t-120 32zM420 1079q0 -79 45 -131.5t139 -95.5l131 467q-150 0 -232.5 -66.5t-82.5 -173.5zM518 111q68 0 131.5 17.5 t117.5 51.5t87 91.5t33 131.5q0 85 -49 138t-172 100z" />
<glyph unicode="%" horiz-adv-x="1570" d="M74 53l1308 1247h-571q29 -60 29 -133q0 -101 -41.5 -193t-125 -154t-190.5 -62q-112 0 -182 66.5t-70 191.5q0 71 24 143t67.5 133t113 99.5t152.5 38.5q85 0 141 -37h752l71 67l68 -78l-1470 -1407zM367 1020q0 -73 32.5 -109.5t89.5 -36.5q63 0 115 44.5t78.5 109.5 t26.5 133q0 76 -35 115t-94 39q-67 0 -117.5 -49.5t-73 -115t-22.5 -130.5zM838 236q0 71 24 143.5t67.5 133.5t113 99.5t151.5 38.5q108 0 179 -66t71 -196q0 -99 -41 -191t-125.5 -155t-192.5 -63q-110 0 -178.5 66t-68.5 190zM971 242q0 -74 33.5 -111t89.5 -37 q96 0 158.5 90t62.5 197q0 77 -35 115.5t-94 38.5q-67 0 -118 -49t-74 -114t-23 -130z" />
<glyph unicode="&#x26;" horiz-adv-x="1689" d="M141 453q0 115 53.5 208.5t151.5 145.5q-96 120 -96 280q0 159 103 262t268 103q134 0 219.5 -69t85.5 -187q0 -98 -61 -154.5t-152 -56.5q-82 0 -119 33l24 102q37 -20 76 -20q38 0 63 26t25 70q0 60 -45 94.5t-119 34.5q-97 0 -156 -60.5t-59 -177.5q0 -132 70 -225 q46 8 82 8q79 0 140 -35.5t61 -99.5q0 -48 -35.5 -79t-97.5 -31q-98 0 -195 82q-59 -29 -92 -91.5t-33 -144.5q0 -166 135 -268.5t359 -102.5q171 0 309 61t219.5 177.5t81.5 269.5q0 135 -80 264q-139 -24 -195.5 -56t-56.5 -109q0 -91 84 -134l-78 -75q-75 22 -122.5 81 t-47.5 148q0 105 61.5 164t170.5 90q42 12 104.5 24.5t109 20.5t97.5 23t84 32.5t54.5 48t21.5 70.5q0 110 -144 133l39 121q134 -13 199.5 -86.5t65.5 -175.5q0 -64 -24.5 -115t-69 -84.5t-95 -54.5t-112.5 -33q83 -135 83 -307q0 -115 -39.5 -216t-111 -177.5t-168 -131.5 t-214 -83.5t-245.5 -28.5q-149 0 -270.5 38.5t-201 105.5t-122.5 156.5t-43 191.5z" />
<glyph unicode="'" horiz-adv-x="438" d="M207 809l166 625h225l-260 -625h-131z" />
<glyph unicode="(" horiz-adv-x="604" d="M104 426q0 160 45 319t111.5 282t155.5 239t164 191t151 136l109 -80q-257 -216 -417.5 -515t-160.5 -605q0 -51 4 -101t14.5 -102t17.5 -87.5t24.5 -90t23.5 -74t25.5 -75t21.5 -60.5l-133 -41q-30 63 -61 147t-63 233.5t-32 283.5z" />
<glyph unicode=")" horiz-adv-x="608" d="M-133 -137q121 103 223 227t182 265.5t125 301.5t45 318q0 52 -4.5 105t-14.5 105t-19 92t-25 91t-24 75.5t-24.5 71.5t-19.5 56l135 43q156 -350 156 -662q0 -122 -26 -244.5t-68.5 -225t-99.5 -200.5t-115.5 -174.5t-120 -143.5t-109.5 -110t-88 -71z" />
<glyph unicode="*" horiz-adv-x="1089" d="M211 688l354 283l-336 108l70 154l326 -156l71 367h183l-119 -367l379 113l-4 -164l-365 -68l205 -333l-158 -62l-160 322l-325 -312z" />
<glyph unicode="+" horiz-adv-x="1114" d="M86 545l37 139h405l111 416h149l-110 -416h409l-38 -139h-408l-111 -416h-149l111 416h-406z" />
<glyph unicode="," horiz-adv-x="548" d="M-121 -326l211 326h-86l80 299h278l-71 -279l-281 -346h-131z" />
<glyph unicode="-" horiz-adv-x="886" d="M135 578l35 137h651l-35 -137h-651z" />
<glyph unicode="." horiz-adv-x="548" d="M4 0l80 299h278l-77 -299h-281z" />
<glyph unicode="/" horiz-adv-x="974" d="M-147 -199l1247 1801l106 -43l-1247 -1807z" />
<glyph unicode="0" horiz-adv-x="1175" d="M106 399q0 119 40 235t111.5 210t182 152.5t240.5 58.5q182 0 288.5 -110.5t106.5 -309.5q0 -95 -24.5 -189t-74 -177.5t-117.5 -147.5t-161 -101.5t-198 -37.5q-186 0 -290 111t-104 306zM268 395q0 -136 63 -211t177 -75q88 0 165 45.5t128.5 119.5t80.5 167.5 t29 189.5q0 141 -62 217t-175 76q-73 0 -138 -31.5t-113 -84.5t-83.5 -121t-53.5 -143.5t-18 -148.5z" />
<glyph unicode="1" horiz-adv-x="933" d="M2 0l35 129h287l206 750l-374 -207l39 166l428 235h122l-258 -944h301l-34 -129h-752z" />
<glyph unicode="2" horiz-adv-x="1071" d="M-8 0l26 135l535 322q141 85 207.5 160t66.5 155q0 74 -47 113t-125 39q-137 0 -270 -113l-61 -215h-138l109 455h129l-16 -95q54 43 130.5 73t163.5 30q133 0 215 -73t82 -198q0 -118 -67 -203.5t-217 -181.5q-99 -63 -213.5 -131.5t-179.5 -105.5l-64 -37h623l-29 -129 h-860z" />
<glyph unicode="3" horiz-adv-x="1191" d="M31 279q0 57 14 112l156 33q-11 -56 -11 -98q0 -120 72 -189t211 -69q181 0 294.5 108t113.5 270q0 117 -60.5 195.5t-154.5 97.5l-166 -145l-88 94l608 529h-500l-59 -205h-127l59 336h813l27 -113l-453 -391q121 -41 194 -144t73 -249q0 -147 -76 -267t-209 -188 t-297 -68q-199 0 -316.5 99t-117.5 252z" />
<glyph unicode="4" horiz-adv-x="1173" d="M-51 125l26 135l854 965l170 -19l-849 -954h514l124 455h162l-125 -455h250l-35 -127h-249l-111 -422h-162l111 422h-680z" />
<glyph unicode="5" horiz-adv-x="1173" d="M-88 6q0 48 10 92l152 33q-11 -51 -11 -102q0 -114 78 -183t215 -69q174 0 290 109t116 280q0 133 -75.5 200.5t-213.5 67.5q-44 0 -80 -6l-45 -139l-133 28l215 697h774q-6 -31 -28 -131h-650l-102 -332q31 8 98 8q191 0 298.5 -110.5t107.5 -282.5q0 -146 -74.5 -267 t-207 -191t-294.5 -70q-195 0 -317.5 101t-122.5 267z" />
<glyph unicode="6" horiz-adv-x="1183" d="M98 444q0 114 39.5 228.5t106 212t155.5 190t187 166.5t200.5 136t196.5 104.5t176 66.5l168 -69q-82 -28 -173.5 -69t-196 -100.5t-201.5 -127t-187 -152.5t-156.5 -174.5t-106.5 -195t-40 -211.5q0 -156 79 -244t210 -88q94 0 175 43.5t132 128.5t51 194 q0 142 -82.5 213.5t-216.5 71.5q-37 0 -53 -2l80 127h43q180 0 287.5 -107.5t107.5 -287.5q0 -139 -63 -256t-185.5 -189.5t-281.5 -72.5q-111 0 -198.5 36.5t-142 100.5t-82.5 147t-28 180z" />
<glyph unicode="7" horiz-adv-x="1091" d="M16 -356l961 1239h-631l-76 -283h-141l119 541h162l-33 -127h778l8 -109l-1007 -1327z" />
<glyph unicode="8" horiz-adv-x="1183" d="M201 266q0 68 26 126t73.5 102.5t98.5 76t117 60.5q-51 48 -90.5 94t-77 105.5t-58 130.5t-20.5 147q0 145 72 259.5t194 176.5t271 62q198 0 326.5 -107t128.5 -299q0 -70 -19 -134t-49 -114t-75.5 -97.5t-88.5 -81.5t-100 -67.5t-98 -54t-93 -43.5q71 -69 109.5 -137 t38.5 -154q0 -143 -102 -238t-261 -95q-140 0 -231.5 75t-91.5 207zM356 274q0 -74 48 -118.5t124 -44.5q86 0 148.5 54.5t62.5 147.5q0 125 -129 230l-45 -25q-47 -25 -79.5 -47t-64.5 -52t-48.5 -66.5t-16.5 -78.5zM432 1108q0 -123 63.5 -229t149.5 -181 q72 32 133.5 66.5t123.5 82t105.5 98.5t71 116.5t27.5 134.5q0 127 -84.5 199.5t-218.5 72.5q-161 0 -266 -101.5t-105 -258.5z" />
<glyph unicode="9" horiz-adv-x="1167" d="M-145 -442q124 43 259.5 109.5t282.5 167t262 213.5t190 256.5t75 287.5q0 150 -77.5 239t-213.5 89q-149 0 -253 -102t-104 -265q0 -144 83 -214.5t219 -70.5q35 0 53 2l-80 -125h-45q-179 0 -285 108.5t-106 289.5q0 140 64 257t186 188t278 71q112 0 200 -37.5 t141 -103t80.5 -148t27.5 -176.5q0 -132 -53 -264.5t-141.5 -242.5t-200 -209t-233 -175t-235 -130.5t-211.5 -84.5z" />
<glyph unicode=":" horiz-adv-x="630" d="M43 0l78 299h280l-79 -299h-279zM231 715l78 299h281l-80 -299h-279z" />
<glyph unicode=";" horiz-adv-x="604" d="M-88 -326l211 326h-84l78 299h278l-71 -279l-283 -346h-129zM229 715l78 299h281l-80 -299h-279z" />
<glyph unicode="&#x3c;" horiz-adv-x="1640" d="M121 694v41l653 643h205l-608 -596h1233v-135h-1233l608 -596h-205z" />
<glyph unicode="=" horiz-adv-x="956" d="M96 358l37 140h684l-37 -140h-684zM190 713l37 137h684l-37 -137h-684z" />
<glyph unicode="&#x3e;" horiz-adv-x="1638" d="M147 647v135h1233l-608 596h207l651 -643v-41l-651 -643h-207l608 596h-1233z" />
<glyph unicode="?" horiz-adv-x="905" d="M139 0l80 299h281l-80 -299h-281zM225 1040l94 398h123l-12 -84q100 100 260 100q137 0 214 -73.5t77 -196.5q0 -65 -22 -124.5t-59.5 -108.5t-83.5 -95t-97.5 -91t-97 -88.5t-86 -96.5t-62.5 -107h-151q29 83 89.5 162.5t123.5 139t123 119t98.5 126.5t38.5 137 q0 77 -44 117.5t-122 40.5q-105 0 -213 -90l-62 -185h-129z" />
<glyph unicode="@" horiz-adv-x="2095" d="M80 340q0 233 87.5 441.5t237.5 358.5t361 238t448 88q138 0 262 -29.5t227.5 -89.5t179 -144.5t117.5 -200.5t42 -252q0 -202 -85.5 -370.5t-223.5 -273.5q-174 -133 -377 -133q-75 0 -108.5 23t-33.5 74q0 49 25.5 143.5t42.5 140.5q-107 -163 -246 -268.5t-268 -105.5 q-107 0 -159 73.5t-52 194.5q0 94 29 202.5t83.5 211t124.5 186.5t159.5 135t181.5 51q106 0 175.5 -65t84.5 -174l61 219h162q-80 -256 -164 -550t-84 -360q0 -14 16 -14q108 11 205 65t168 138.5t112.5 200.5t41.5 245q0 145 -53 262t-146.5 193t-218.5 116t-272 40 q-203 0 -385.5 -75t-317 -206.5t-213 -319.5t-78.5 -403q0 -149 38.5 -266.5t104.5 -194.5t158 -127.5t193 -72t217 -21.5q184 0 369 52t315 141l-57 -158q-131 -78 -305 -119t-342 -41q-182 0 -333.5 50t-265.5 147t-177.5 251.5t-63.5 352.5zM721 246q0 -135 86 -135 q53 0 127 46.5t145 116t131.5 141t100.5 132.5q0 1 4 43t4 74q0 46 -8 86.5t-26 79t-52.5 61t-81.5 22.5q-82 0 -163 -69.5t-138.5 -171.5t-93 -218t-35.5 -208z" />
<glyph unicode="A" horiz-adv-x="1441" d="M-137 0l31 123h192l809 1186h-225l41 125h555l-138 -1311h199l-31 -123h-561l31 123h201l53 426h-467l-281 -426h207l-30 -123h-586zM635 678h397l70 631h-45z" />
<glyph unicode="B" horiz-adv-x="1380" d="M-53 0l33 123h217l313 1186h-217l31 125h649q161 0 249.5 -81t88.5 -216q0 -131 -84 -234.5t-230 -159.5q125 -27 195 -103.5t70 -201.5q0 -189 -150 -313.5t-377 -124.5h-788zM369 133h356q162 0 267.5 83t105.5 214q0 114 -79.5 173t-203.5 59h-309zM541 791h311 q131 45 211 129t80 194q0 88 -55 136t-160 48h-252z" />
<glyph unicode="C" horiz-adv-x="1286" d="M154 504q0 129 31.5 263.5t93 257t144 218.5t194 153.5t233.5 57.5q66 0 119 -16t86.5 -43.5t53.5 -54t32 -56.5l49 150h127l-115 -447l-135 -4q0 4 1 29.5t1 42.5q0 270 -215 270q-113 0 -214.5 -75t-169.5 -192.5t-108 -259t-40 -276.5q0 -208 92.5 -304.5t249.5 -96.5 q80 0 160.5 23.5t138.5 56.5t104.5 66.5t70.5 56.5l23 24l-20 -176q-7 -8 -20.5 -21t-60.5 -46t-100 -58t-139 -46t-178 -21q-234 0 -361.5 132t-127.5 392z" />
<glyph unicode="D" horiz-adv-x="1474" d="M-53 0l30 123h220l315 1186h-221l33 125h612q227 0 363.5 -130t136.5 -382q0 -141 -41 -293q-56 -206 -177.5 -349.5t-283 -211.5t-354.5 -68h-633zM369 133h204q205 0 366 108t245 282.5t84 379.5q0 199 -94.5 297t-313.5 98h-188z" />
<glyph unicode="E" horiz-adv-x="1429" d="M-53 0l30 123h220l313 1186h-219l33 125h1118l-84 -355h-127l29 219h-584l-137 -510h313l55 207h144l-142 -536h-143l53 198h-313l-137 -524h718l105 225h127l-115 -358h-1257z" />
<glyph unicode="F" horiz-adv-x="1230" d="M-53 0l30 123h220l313 1186h-219l33 125h1099l-84 -355h-129l27 219h-563l-142 -540h324l51 196h144l-140 -526h-143l53 199h-323l-133 -504h294l-30 -123h-682z" />
<glyph unicode="G" horiz-adv-x="1386" d="M156 510q0 129 31 262.5t92.5 255t144 217t194.5 152.5t236 57q128 0 200 -54.5t93 -125.5l55 160h127l-115 -447h-137q0 4 1 29.5t1 40.5q0 48 -9.5 90.5t-32.5 85t-69.5 67.5t-111.5 25q-90 0 -174.5 -48.5t-149 -130.5t-113.5 -185.5t-74.5 -219t-25.5 -225.5t26 -191 t73 -126.5t103.5 -66.5t125.5 -21q175 0 289.5 126t159.5 338h-383l32 130h687l-35 -130h-144q-67 -301 -227 -448t-389 -147q-106 0 -192 31t-151.5 93.5t-101.5 166t-36 239.5z" />
<glyph unicode="H" horiz-adv-x="1638" d="M-55 0l32 123h220l313 1186h-221l35 125h606l-35 -125h-219l-135 -518h708l135 518h-219l33 125h608l-34 -125h-220l-313 -1186h221l-33 -123h-606l31 123h221l141 541h-706l-143 -541h219l-33 -123h-606z" />
<glyph unicode="I" horiz-adv-x="831" d="M-68 0l33 123h271l311 1186h-271l35 125h697l-33 -125h-260l-312 -1186h261l-33 -123h-699z" />
<glyph unicode="J" horiz-adv-x="1363" d="M-2 141q0 51 6 80l166 39q-1 -3 -8 -88q0 -136 78 -214.5t229 -78.5q64 0 117.5 17t91 39t70.5 68.5t52 80t40 100.5t30 102.5t27 112.5q15 65 23 97l200 802h-268q-81 0 -143.5 -10.5t-115.5 -35t-81.5 -71.5t-28.5 -114q0 -91 50.5 -139t138.5 -56l-64 -116 q-138 12 -216.5 92.5t-78.5 212.5q0 174 130.5 273.5t334.5 99.5h738l-35 -125h-191l-221 -916q-23 -94 -37.5 -146.5t-41.5 -131.5t-61.5 -137.5t-78.5 -102.5q-140 -143 -387 -143q-216 0 -340.5 108.5t-124.5 300.5z" />
<glyph unicode="K" horiz-adv-x="1632" d="M-51 0l31 123h219l311 1186h-219l33 125h600l-35 -125h-211l-141 -531h168l575 531h-209l33 125h584l-33 -125h-172l-670 -596l68 -115q186 -315 303 -434t235 -119q47 0 107.5 12t89.5 35l-27 -147q-78 -41 -182 -41q-63 0 -121 17.5t-101.5 38t-94 70t-79 79.5t-77 104 t-67 104.5t-69.5 117.5q-2 3 -3 5l-121 207h-170l-137 -524h251l-32 -123h-637z" />
<glyph unicode="L" horiz-adv-x="1286" d="M-51 0l33 123h217l311 1186h-219l35 125h630l-32 -125h-246l-311 -1186h608l119 246h127l-140 -369h-1132z" />
<glyph unicode="M" horiz-adv-x="1847" d="M-74 0l31 123h221l371 1186h-217l33 125h432l143 -822l594 822h453l-33 -125h-219l-281 -1186h219l-33 -123h-606l33 123h219l283 1124l-582 -790h-166l-139 790l-344 -1124h242l-31 -123h-623z" />
<glyph unicode="N" horiz-adv-x="1607" d="M-41 0l33 123h219l311 1186h-221l35 125h407l365 -1209l278 1084h-225l33 125h586l-35 -125h-209l-344 -1309h-170l-371 1251l-280 -1128h221l-31 -123h-602z" />
<glyph unicode="O" d="M150 489q0 128 30 261.5t93 259.5t149 225t208 159t261 60q98 0 178 -30t140.5 -91t94 -161t33.5 -232q0 -106 -21.5 -216.5t-62 -218t-104.5 -202.5t-143.5 -167t-185 -114t-222.5 -42q-98 0 -178 29.5t-141.5 89.5t-95 159t-33.5 231zM315 479q0 -182 81 -272t216 -90 q173 0 306.5 140.5t205.5 383.5q52 175 52 315q0 181 -81.5 272t-215.5 91q-170 0 -305.5 -140.5t-208.5 -387.5q-50 -168 -50 -312z" />
<glyph unicode="P" horiz-adv-x="1267" d="M-51 0l31 123h219l311 1186h-219l33 125h600q180 0 293.5 -103.5t113.5 -286.5q0 -215 -160.5 -337.5t-441.5 -122.5h-74l-24 141q15 0 43 -1t49 -1q132 0 229.5 33t155 106t57.5 180q0 87 -38.5 146.5t-97.5 84.5t-134 25h-219l-309 -1175h264l-31 -123h-651z" />
<glyph unicode="Q" d="M-154 -274q0 91 65 155t183 64q60 0 116 -18t146 -60q12 21 72 139q-137 51 -207.5 166.5t-70.5 310.5q0 131 30 266t93 261.5t149 225.5t208 158.5t261 59.5q98 0 178 -30t140.5 -91t94 -161t33.5 -232q0 -107 -22.5 -219t-64 -219t-105.5 -201t-142.5 -165 t-180.5 -112.5t-214 -41.5q-16 0 -25 1t-14 1q-16 -33 -46.5 -94.5t-37.5 -75.5q33 -14 128 -57t143.5 -62.5t123 -39.5t132.5 -20q57 0 111.5 16.5t91 39.5t65 46t42.5 39l13 17l4 -147q-4 -6 -13 -16t-41 -36t-69.5 -46t-99 -36t-129.5 -16t-133.5 13.5t-149 48.5t-133 59 t-161.5 82q-126 -184 -324 -184q-115 0 -177.5 62.5t-62.5 148.5zM-12 -268q0 -41 28 -67.5t76 -26.5q52 0 99 29.5t79 70.5l17 20q-120 60 -197 60q-50 0 -76 -23.5t-26 -62.5zM315 475q0 -261 172 -332q26 53 50.5 113t55.5 141t46 119l131 -61q-7 -17 -29.5 -74.5 t-51 -126t-58.5 -133.5q74 0 153 43t148 121t124.5 178.5t87.5 224t32 248.5q0 200 -79.5 291.5t-213.5 91.5q-175 0 -315.5 -146t-209.5 -401q-43 -157 -43 -297z" />
<glyph unicode="R" horiz-adv-x="1480" d="M-51 0l31 123h219l311 1186h-219l33 125h571q215 0 328.5 -82.5t113.5 -245.5q-1 -122 -65 -217.5t-172 -153t-248 -78.5q115 -52 225 -266l140 -268h239l-33 -123h-331l-183 373q-116 233 -278 252h-133l-131 -502h233l-31 -123h-620zM532 756h191q80 0 156.5 19t142 56 t105.5 100t40 142q0 113 -73 169t-176 56h-242z" />
<glyph unicode="S" horiz-adv-x="1189" d="M53 55l92 385h134l-52 -284q39 -20 126 -35t161 -15q170 0 278.5 83t108.5 214q0 50 -22.5 93t-87.5 88q-41 28 -105.5 60.5t-118 57t-112 61t-98.5 75t-66.5 97.5t-26.5 130q0 176 142 282.5t385 106.5q105 0 220.5 -20t186.5 -54l-96 -356h-129l47 266q-97 33 -238 33 q-155 0 -251.5 -62.5t-96.5 -173.5q0 -51 22 -93t59 -72.5t85 -58t101 -52.5t105.5 -51.5t100.5 -60t85 -73t59 -95.5t22 -123q0 -189 -160 -311t-424 -122q-105 0 -214 20t-165 40z" />
<glyph unicode="T" horiz-adv-x="1368" d="M186 1051l131 383h1246l-103 -385h-127l31 249h-377l-309 -1175h237l-30 -123h-645l30 123h240l309 1175h-375l-127 -247h-131z" />
<glyph unicode="U" horiz-adv-x="1622" d="M252 338q0 81 27 186q132 502 206 785h-209l35 125h604l-32 -125h-230l-204 -783q-27 -100 -27 -174q0 -237 305 -237q85 0 151 18t128.5 62.5t110 127t79.5 203.5l207 783h-240l33 125h606l-35 -125h-208l-207 -797q-34 -129 -83 -224.5t-105.5 -154t-129 -93.5 t-144 -47.5t-159.5 -12.5q-479 0 -479 358z" />
<glyph unicode="V" horiz-adv-x="1421" d="M207 1309l35 125h573l-35 -125h-202l18 -1186h37l639 1186h-211l35 125h583l-34 -125h-205l-717 -1309h-272l-37 1309h-207z" />
<glyph unicode="W" horiz-adv-x="2283" d="M207 1309l33 125h571l-33 -125h-205l23 -1186h39l639 1186h-203l33 125h567l-33 -125h-208l26 -1186h41l639 1186h-213l33 125h584l-33 -125h-207l-715 -1309h-274l-19 1067l-567 -1067h-274l-37 1309h-207z" />
<glyph unicode="X" horiz-adv-x="1538" d="M-90 0l31 127h235l557 606l-244 576h-229l31 125h614l-31 -125h-198l188 -473l422 473h-205l33 125h625l-31 -125h-240l-546 -594l252 -588h225l-33 -127h-604l31 127h194l-196 483l-426 -483h200l-33 -127h-622z" />
<glyph unicode="Y" horiz-adv-x="1398" d="M209 1309l33 125h569l-33 -125h-211l183 -643l510 643h-230l33 125h592l-33 -125h-190l-633 -774l-107 -408h219l-32 -127h-607l33 127h219l107 414l-228 768h-194z" />
<glyph unicode="Z" horiz-adv-x="1343" d="M-35 0l35 129l1217 1169h-719l-84 -247h-129l86 383h1085l-24 -129l-1213 -1172h758l100 248h137l-112 -381h-1137z" />
<glyph unicode="[" horiz-adv-x="669" d="M-4 -199l467 1774h508l-35 -133h-344l-399 -1508h344l-35 -133h-506z" />
<glyph unicode="\" horiz-adv-x="978" d="M309 1604l123 22l350 -1868l-123 -14z" />
<glyph unicode="]" horiz-adv-x="669" d="M-201 -199l35 133h342l399 1508h-344l37 133h506l-469 -1774h-506z" />
<glyph unicode="^" horiz-adv-x="1034" d="M135 512l576 922h174l108 -922h-162l-67 750l-447 -750h-182z" />
<glyph unicode="_" horiz-adv-x="649" d="M-182 -272l32 129h601l-33 -129h-600z" />
<glyph unicode="`" horiz-adv-x="733" d="M266 1477l150 90l436 -355l-100 -69z" />
<glyph unicode="a" horiz-adv-x="1191" d="M49 248q0 94 30 202.5t85 211t126 186.5t161 135t182 51q105 0 173 -65t83 -174l57 219h164q-7 -28 -107.5 -369.5t-136.5 -503.5l273 127l-33 -137q-25 -17 -65.5 -42t-129.5 -67t-135 -42q-37 0 -56.5 22.5t-19.5 56.5q0 42 27.5 147t44.5 148q-110 -164 -245.5 -269 t-264.5 -105q-109 0 -161 73t-52 195zM217 246q0 -135 86 -135q70 0 176 81t190 176.5t140 178.5q0 3 2 21.5t4 45.5t2 50q0 45 -8 85.5t-26 78.5t-52.5 60.5t-81.5 22.5q-82 0 -163.5 -69.5t-139 -171t-93.5 -217t-36 -207.5z" />
<glyph unicode="b" horiz-adv-x="1118" d="M111 262q0 85 39.5 255.5t152.5 600.5q40 152 62 238h-183l31 119h352q-10 -35 -60 -208t-97.5 -341t-73.5 -271q109 161 254 270t274 109q104 0 157.5 -73.5t53.5 -198.5q0 -98 -32 -207t-92.5 -210.5t-139 -183.5t-181.5 -131.5t-210 -49.5q-135 0 -221 75.5t-86 206.5 zM266 264q0 -75 45.5 -120.5t120.5 -45.5q61 0 123 32.5t113 86.5t96.5 124t76 144t48.5 148t18 135q0 135 -88 135q-49 0 -120 -42t-140.5 -105.5t-132 -134t-104.5 -132.5q-56 -143 -56 -225z" />
<glyph unicode="c" horiz-adv-x="989" d="M78 365q0 101 29 201.5t80 183t115.5 147.5t140.5 101t151 36q72 0 121.5 -31.5t68.5 -76.5l50 108h110l-96 -362h-123q6 61 6 88q0 70 -33.5 111.5t-93.5 41.5t-125 -43t-118 -113t-87 -169t-34 -203q0 -270 235 -270q117 0 239 56.5t160 98.5l-36 -164 q-51 -43 -159 -84.5t-228 -41.5q-167 0 -270 94.5t-103 290.5z" />
<glyph unicode="d" horiz-adv-x="1218" d="M49 250q0 92 29.5 199.5t84.5 210t126 187t161.5 136t182.5 51.5q105 0 173 -65t83 -174l160 561h-232l27 119h405q-7 -24 -170 -574.5t-215 -759.5q50 24 145 67t130 60l-35 -137q-25 -17 -65 -42t-129 -67t-136 -42q-37 0 -56.5 22.5t-19.5 56.5q0 42 27.5 147 t44.5 148q-112 -161 -249 -267.5t-263 -106.5q-102 0 -155.5 73.5t-53.5 196.5zM215 246q0 -135 86 -135q101 0 287 180q82 79 141 151.5t78 104.5q8 40 8 115q0 47 -8 88.5t-25.5 79.5t-51.5 60.5t-81 22.5q-81 0 -163 -69t-140 -170t-94.5 -217.5t-36.5 -210.5z" />
<glyph unicode="e" horiz-adv-x="995" d="M72 336q0 96 30 207q43 155 129 267.5t195.5 168t230.5 55.5q129 0 206 -62.5t77 -164.5q0 -198 -295 -277q-152 -41 -391 -41q-16 -72 -16 -124q0 -125 60 -187.5t175 -62.5q55 0 116 14t108 33.5t86.5 39.5t60.5 34l22 14l-43 -164q-7 -4 -19 -11.5t-51.5 -25.5 t-81 -32t-103.5 -25.5t-122 -11.5q-179 0 -276.5 93.5t-97.5 262.5zM299 614q214 0 350.5 53.5t136.5 141.5q0 48 -40 74t-101 26q-109 0 -203 -83t-143 -212z" />
<glyph unicode="f" horiz-adv-x="677" d="M-354 -365l100 111q12 -46 60.5 -82.5t117.5 -36.5q41 0 72.5 16t50 36.5t34.5 58t22.5 62.5t15.5 67l211 1018h-219l26 129h219l47 213q37 167 123.5 250.5t233.5 83.5q69 0 134.5 -19.5t94 -35.5t41.5 -27l-65 -142q-2 2 -16.5 12.5t-21.5 15t-23 14.5t-29 15.5 t-30.5 12t-36.5 9.5t-38 3q-44 0 -79.5 -17t-56.5 -40t-37.5 -59t-23.5 -61t-14 -58l-37 -170h266l-30 -129h-262l-217 -1059q-69 -342 -357 -342q-118 0 -189.5 49t-86.5 102z" />
<glyph unicode="g" horiz-adv-x="1011" d="M-55 -260q0 37 13 70t32 53t37.5 34.5t31.5 20.5l13 6l106 -41q-29 -12 -54.5 -45t-25.5 -71q0 -72 96 -117t246 -45q142 0 235 43t93 125q0 49 -38.5 81.5t-99.5 48.5t-135 27.5t-148 26.5t-135 38t-99.5 68.5t-38.5 112.5q0 63 40 115.5t126 79.5q-40 35 -69.5 98 t-29.5 147q0 77 26.5 150.5t76.5 133.5t130 97t177 37q147 0 242 -82l278 170l72 -127l-269 -159q25 -70 25 -136q0 -77 -25.5 -151t-74 -136.5t-128.5 -100.5t-179 -38q-110 0 -185 43q-36 -13 -60 -45t-24 -63q0 -37 39.5 -62t103 -38.5t139.5 -26t152.5 -32t140 -48.5 t103 -82.5t39.5 -128.5q0 -63 -28 -118t-86 -100t-159 -71t-235 -26q-225 0 -356 71t-131 193zM307 604q0 -100 48 -151.5t134 -51.5q82 0 141 46t85 112t26 141q0 103 -51.5 156t-136.5 53q-80 0 -137.5 -47.5t-83 -115t-25.5 -142.5z" />
<glyph unicode="h" horiz-adv-x="1181" d="M33 0l360 1356h-172l29 119h344q-16 -59 -48.5 -172t-85 -294.5t-98.5 -346.5q278 372 496 372q88 0 136 -56.5t48 -121.5q0 -75 -64 -300t-128 -415l274 127l-32 -137q-26 -17 -67 -42t-130.5 -67t-134.5 -42q-39 0 -61.5 24.5t-22.5 52.5q0 42 104.5 369t104.5 395 q0 32 -17 49t-47 17q-55 0 -139.5 -58.5t-159.5 -135t-131 -142t-69 -88.5l-121 -463h-168z" />
<glyph unicode="i" horiz-adv-x="616" d="M119 895l31 119h395q-9 -36 -109 -374.5t-137 -498.5l276 127l-32 -137q-26 -17 -68 -42t-133 -67t-135 -42q-35 0 -59.5 21.5t-24.5 53.5q0 41 42.5 202t111 395t71.5 243h-229zM401 1219l68 235h199l-68 -235h-199z" />
<glyph unicode="j" horiz-adv-x="598" d="M-274 -262q97 -47 196 -47q53 0 90.5 18t63 57t41 84.5t30.5 116.5l203 928h-231l31 119h395q-31 -125 -79 -337t-103 -460t-72 -323q-39 -174 -120 -259.5t-234 -85.5q-120 0 -201 41zM395 1219l60 235h200l-61 -235h-199z" />
<glyph unicode="k" horiz-adv-x="1177" d="M31 0q111 408 364 1356h-184l29 119h364q-171 -573 -274 -928q340 475 616 475q94 0 154.5 -52.5t60.5 -138.5q0 -93 -70 -152.5t-171 -64.5l-70 115q66 0 113 23.5t47 70.5q0 60 -82 60q-74 0 -153 -51.5t-177 -161.5q34 -148 81 -269.5t105.5 -199.5t114.5 -78 q34 0 81.5 24.5t66.5 40.5l12 -125q-18 -18 -82.5 -48.5t-126.5 -30.5q-33 0 -64.5 12t-57 30t-50.5 49.5t-44 61t-39.5 75t-34.5 80t-31.5 87t-27.5 86t-26 86.5q-15 -16 -80.5 -95.5t-72.5 -86.5q-19 -32 -34.5 -67t-28.5 -77.5t-20.5 -70t-21 -81t-18.5 -73.5h-168z" />
<glyph unicode="l" horiz-adv-x="567" d="M61 57q0 41 58 265q221 850 272 1034h-194l30 119h369q-15 -55 -95 -347.5t-152 -561.5t-109 -425l274 127l-33 -137q-10 -6 -26 -16.5t-62 -36.5t-86.5 -45.5t-86.5 -36t-75 -16.5q-38 0 -61 22t-23 55z" />
<glyph unicode="m" horiz-adv-x="1830" d="M72 0l239 895h-164l31 119h330q-20 -73 -109 -352q57 76 109 135t116.5 116.5t132.5 89t134 31.5q84 0 128 -51t44 -133q0 -48 -29 -170q129 166 243.5 257t231.5 91q88 0 136.5 -49.5t48.5 -116.5q0 -125 -193 -721l277 127l-35 -137q-26 -17 -67 -42t-130.5 -67 t-134.5 -42q-39 0 -61.5 24.5t-22.5 52.5q0 42 104.5 369t104.5 395q0 32 -16.5 49t-46.5 17q-44 0 -106.5 -37.5t-121.5 -91t-114.5 -113t-91.5 -104.5t-46 -64q-21 -62 -77 -246.5t-72 -228.5l-168 -8q39 104 136 424t97 403q0 66 -61 66q-45 0 -108.5 -39t-123 -94.5 t-116 -117t-93 -108t-47.5 -65.5l-120 -463h-168z" />
<glyph unicode="n" horiz-adv-x="1220" d="M72 0l239 895h-164l31 119h330q-20 -73 -109 -352q57 75 108.5 133t116 114.5t134 87.5t137.5 31q89 0 137.5 -50t48.5 -118q0 -126 -192 -719l274 127l-33 -137q-26 -17 -66.5 -42t-130 -67t-134.5 -42q-39 0 -61.5 24.5t-22.5 52.5q0 42 104.5 369t104.5 395 q0 32 -17 49t-47 17q-55 0 -139.5 -58.5t-160 -135t-131.5 -142t-69 -88.5l-120 -463h-168z" />
<glyph unicode="o" horiz-adv-x="1089" d="M76 352q0 84 20.5 174t66 181.5t110.5 163.5t162 117.5t212 45.5q168 0 267.5 -95t99.5 -277q0 -88 -23 -181t-71.5 -183t-115 -160.5t-162.5 -114t-206 -43.5q-164 0 -262 95t-98 277zM236 356q0 -128 59 -189t156 -61q75 0 141.5 35.5t113.5 92.5t81.5 129t51.5 145.5 t17 140.5q0 130 -61 192t-158 62q-93 0 -171.5 -54t-127 -137t-75.5 -176.5t-27 -179.5z" />
<glyph unicode="p" horiz-adv-x="1179" d="M-199 -451l33 129h170l315 1217h-182l31 119h350q-100 -327 -110 -359q112 161 250 270t264 109q102 0 154 -74.5t52 -199.5q0 -121 -47.5 -257.5t-126.5 -253t-194 -193t-238 -76.5q-59 0 -104.5 17.5t-72 45.5t-40.5 58t-18 61l-119 -484h235l-32 -129h-570zM354 322 q0 -57 14 -105t53 -83.5t99 -35.5q84 0 168 69t143 170.5t95.5 217.5t36.5 211q0 137 -86 137q-101 0 -289 -188q-79 -79 -144 -162.5t-82 -120.5q0 -2 -2 -19.5t-4 -43t-2 -47.5z" />
<glyph unicode="q" horiz-adv-x="1140" d="M49 248q0 94 30 202.5t85 211t126 186.5t161 135t182 51q105 0 173 -65t83 -174l53 229h166l-348 -1346h180l-33 -129h-571l33 129h223l180 676q-110 -164 -245.5 -269t-264.5 -105q-109 0 -161 73t-52 195zM217 246q0 -135 86 -135q70 0 176 81t190 176.5t140 178.5 q0 3 2 21.5t4 45.5t2 50q0 45 -8 85.5t-26 79t-52.5 61.5t-81.5 23q-82 0 -163.5 -69.5t-139 -171.5t-93.5 -218t-36 -208z" />
<glyph unicode="r" horiz-adv-x="829" d="M72 0l239 895h-164l31 119h330q-7 -23 -45 -145.5t-66 -217.5q39 50 58.5 74.5t59.5 72t66 73t65 60t70.5 52t69.5 30.5t74 13q30 0 68 -10l-54 -164q-8 2 -24 2q-49 0 -112 -35.5t-115.5 -80.5t-113.5 -110.5t-90 -101t-61 -75.5l-116 -451h-170z" />
<glyph unicode="s" horiz-adv-x="903" d="M20 37l64 315h129l-31 -217q80 -35 193 -35q114 0 193 44.5t79 129.5q0 82 -98 127q-22 10 -72 27.5t-89.5 31.5t-88.5 41t-82 57.5t-55.5 79t-22.5 107.5q0 138 111.5 213.5t290.5 75.5q46 0 91.5 -5t83.5 -13t65.5 -15t52 -15t28.5 -9l-59 -270h-131l35 176 q-68 22 -175 22q-105 0 -166 -38t-61 -109q0 -45 28 -78.5t72.5 -54.5t98.5 -39.5t108 -41.5t98.5 -52.5t72.5 -80.5t28 -118q0 -141 -114.5 -229.5t-323.5 -88.5q-86 0 -174 15.5t-133 31.5z" />
<glyph unicode="t" horiz-adv-x="819" d="M111 885l34 129h211l88 329h170l-94 -329h295l-57 -129h-273q-54 -200 -105.5 -420t-51.5 -283t71 -63q125 0 344 164l-36 -166q-45 -45 -148.5 -90t-206.5 -45q-93 0 -142.5 42t-49.5 123q0 75 40.5 259.5t81.5 331.5l40 147h-211z" />
<glyph unicode="u" horiz-adv-x="1220" d="M117 895l30 119h361q-25 -79 -61 -198.5t-97 -345.5t-61 -282q0 -29 16 -46t47 -17q50 0 124.5 49.5t144.5 121t125.5 136t84.5 107.5q6 16 23 78t40.5 149.5t33.5 122.5l-228 -8l33 120l391 17q-44 -142 -102.5 -362t-94.5 -370l-36 -149q46 22 138 65.5t138 65.5 l-32 -137q-25 -17 -64.5 -42t-127.5 -67t-134 -42q-36 0 -55 22t-19 55q0 65 68 295q-47 -66 -99 -124.5t-117.5 -118t-138 -94.5t-139.5 -35q-87 0 -132.5 54t-45.5 122q0 48 28 171.5t60 239t92 328.5h-194z" />
<glyph unicode="v" horiz-adv-x="1128" d="M72 844l18 125l422 67l43 -24q-63 -146 -125.5 -393.5t-62.5 -407.5q0 -64 10 -94q61 0 136.5 40t154 120.5t144 186.5t107.5 253.5t44 306.5h170q-3 -163 -51.5 -323t-126.5 -286.5t-174 -224.5t-201 -151t-201 -53q-92 0 -131 55t-39 180q0 260 133 676z" />
<glyph unicode="w" horiz-adv-x="1740" d="M72 844l16 125l424 67l43 -24q-76 -175 -144.5 -400t-68.5 -387q0 -77 14 -108q49 0 114.5 36t124.5 87.5t105 99.5t70 82q-4 62 -4 117q0 218 66.5 342.5t175.5 124.5q65 0 102 -44t37 -118q0 -98 -61 -220.5t-162 -226.5q2 -57 10.5 -104.5t26.5 -89t49.5 -65 t74.5 -23.5q75 0 158.5 72.5t153.5 192.5t117 291.5t49 352.5h170q-2 -103 -24.5 -219t-62.5 -231.5t-99.5 -221.5t-130.5 -187.5t-161 -130t-186 -48.5q-62 0 -110 21.5t-75 49.5t-47.5 72.5t-27 71.5t-14.5 67q-28 -38 -73 -82t-104.5 -89t-131.5 -75t-138 -30 q-87 0 -123.5 54.5t-36.5 170.5q0 74 12.5 159t34.5 170.5t39 143.5t41.5 129.5t26.5 77.5zM903 604q0 -31 2 -47q113 163 113 268q0 43 -23 43q-34 0 -63 -73.5t-29 -190.5z" />
<glyph unicode="x" horiz-adv-x="1110" d="M-37 45l486 477l-142 373h-176l33 119h268l131 -381l381 391l193 -10l-514 -518q73 -220 153 -318q45 -53 90 -53q36 0 72 12.5t53.5 24t48.5 33.5l-2 -136q-126 -69 -221 -69q-56 0 -100.5 26.5t-82 82.5t-66.5 122.5t-64 167.5q-43 -45 -186 -193.5t-222 -228.5z" />
<glyph unicode="y" horiz-adv-x="1058" d="M-236 -410l29 154q12 -6 32.5 -14.5t82 -22.5t119.5 -14q140 0 247 77t175 199l-216 926h-223l31 119h338l192 -897q59 113 152.5 374t142.5 513l187 32q-236 -927 -568 -1272q-108 -114 -219 -164.5t-241 -50.5q-68 0 -133 10.5t-96 20.5z" />
<glyph unicode="z" horiz-adv-x="1060" d="M-6 72l723 692q-173 108 -295 108q-74 0 -113 -38.5t-39 -100.5q0 -43 21 -90l-125 2q-13 19 -24 57.5t-11 77.5q0 43 14 83.5t43 78t82.5 60t124.5 22.5q70 0 144 -21.5t133.5 -55.5t87.5 -52t49 -35l166 166l112 -88l-712 -690q24 -14 63 -35t129.5 -55.5t145.5 -34.5 q31 0 56.5 10t41.5 29.5t27.5 38.5t18 46t9.5 42t6 37l123 -29q0 -13 -1 -27.5t-6.5 -47.5t-15.5 -62t-31 -63.5t-50 -59t-75 -41t-103 -16.5q-69 0 -147 23t-140.5 56.5t-97.5 55.5t-52 35l-172 -166z" />
<glyph unicode="{" horiz-adv-x="710" d="M63 657l33 129h109q122 0 164 160l166 629h464l-32 -129h-303l-129 -488q-31 -119 -84.5 -172t-128.5 -67q43 -11 72.5 -47.5t29.5 -89.5q0 -43 -14 -101l-146 -549h301l-35 -129h-464l182 684q10 41 10 68q0 56 -22 79t-62 23h-111z" />
<glyph unicode="|" horiz-adv-x="495" d="M-23 -264l515 1960h141l-516 -1960h-140z" />
<glyph unicode="}" horiz-adv-x="708" d="M-193 -197l35 129h299l148 553q29 112 82 167t131 71q-47 9 -75 48t-28 97q0 42 25 136l117 442h-301l34 129h467l-168 -629q-12 -46 -12 -72q0 -88 92 -88h107l-33 -129h-111q-118 0 -174 -213l-170 -641h-465z" />
<glyph unicode="~" horiz-adv-x="1144" d="M147 557q5 62 24 112.5t45 82t59 52.5t63.5 29.5t60.5 8.5q60 0 150.5 -36.5t175 -73t129.5 -36.5q90 0 102 138h144q-4 -73 -26.5 -129t-57.5 -88t-75 -48t-83 -16q-64 0 -153 35.5t-170.5 70.5t-126.5 35q-99 0 -113 -137h-148z" />
<glyph unicode="&#xa1;" horiz-adv-x="577" d="M-106 -420l317 971h131l-192 -971h-256zM178 713l80 301h279l-80 -301h-279z" />
<glyph unicode="&#xa2;" horiz-adv-x="989" d="M78 365q0 126 45.5 250t117.5 215t166.5 147.5t188.5 56.5q17 0 25 -2l88 305h94l-96 -329q56 -29 77 -82l50 108h110l-96 -362h-123q6 61 6 88q0 91 -57 133l-225 -778h28q116 0 237.5 56.5t159.5 98.5l-36 -164q-50 -42 -158.5 -84t-222.5 -42q-15 0 -27.5 1t-19.5 1 l-93 -322h-94l96 336q-112 31 -176.5 122.5t-64.5 246.5zM240 385q0 -193 120 -250l226 776q-60 -6 -121.5 -51t-111.5 -114.5t-81.5 -165.5t-31.5 -195z" />
<glyph unicode="&#xa3;" horiz-adv-x="1546" d="M51 96q0 64 42.5 97.5t103.5 33.5q63 0 114 -26q46 23 131 254h-231v139h281q21 61 65 194h-346v138h387q81 251 160 364q133 193 366 193q99 0 194 -34.5t146 -94.5l-98 -137q-93 114 -233 114q-78 0 -133.5 -33.5t-107.5 -122t-106 -249.5h332v-138h-381 q-32 -106 -67 -194h448v-139h-508q-90 -193 -170 -279q140 -33 299.5 -63.5t225.5 -30.5q153 0 186 174l139 -39q-46 -299 -334 -299q-123 0 -290 46.5t-306 98.5q-81 -90 -182 -90q-65 0 -96 36.5t-31 86.5z" />
<glyph unicode="&#xa4;" horiz-adv-x="1525" d="M248 254q25 25 71.5 70.5t84.5 82.5t73 70q-82 110 -82 262q0 145 72 250l-219 215l96 101l223 -218q106 74 256 74q148 0 254 -74l223 218l99 -101l-219 -215q69 -101 69 -250q0 -156 -82 -262l232 -223l-99 -102q-234 228 -237 231q-101 -61 -240 -61q-140 0 -241 61 q-98 -98 -238 -231q-15 15 -30.5 31.5t-35 37.5t-30.5 33zM553 741q0 -148 74 -219t196 -71q123 0 197 71.5t74 218.5t-74 219t-197 72q-121 0 -195.5 -72t-74.5 -219z" />
<glyph unicode="&#xa5;" horiz-adv-x="1548" d="M227 492l31 118h422l-53 181h-322l33 118h252l-131 400h-183l35 125h570l-33 -125h-217l184 -645l498 645h-183l35 125h557l-32 -125h-191l-323 -400h241l-31 -118h-309l-147 -181h407l-30 -118h-451l-96 -369h219l-33 -123h-606l33 123h219l96 369h-461z" />
<glyph unicode="&#xa6;" horiz-adv-x="503" d="M-18 -264l229 880h141l-231 -880h-139zM268 834l228 862h141l-227 -862h-142z" />
<glyph unicode="&#xa7;" horiz-adv-x="1241" d="M117 -94l80 284h127l-41 -188q67 -18 153 -18q71 0 135.5 21.5t110 69.5t45.5 113q0 54 -33 94.5t-85 66t-115.5 48t-127 47.5t-115.5 57t-85 84.5t-33 121.5q0 108 75.5 197t217.5 130l12 -10q12 -11 22.5 -19.5t30.5 -20.5t41 -21q-72 -23 -123 -54t-74 -63t-32.5 -58 t-9.5 -51q0 -48 33 -84t85.5 -59.5t116.5 -45.5t128 -49t116.5 -62t85.5 -92.5t33 -133.5q0 -86 -40.5 -154.5t-109 -111.5t-154.5 -65.5t-181 -22.5q-167 0 -289 49zM475 1282q0 85 39 153t104.5 110t148 63.5t173.5 21.5q76 0 164 -13.5t147 -37.5l-80 -285h-129l43 187 q-68 20 -163 20q-115 0 -197 -53.5t-82 -144.5q0 -54 33 -95t85 -67t115.5 -48.5t127 -48t115.5 -57t85 -83.5t33 -120q0 -101 -72.5 -192t-222.5 -143l-10 9q-10 8 -19.5 15.5t-23.5 17.5t-30.5 17.5t-31.5 11.5q74 22 126 53.5t76 64.5t34 61t10 55q0 44 -25.5 78.5 t-67.5 55.5t-96 42.5t-110 38.5t-110 44.5t-96 60.5t-67.5 86.5t-25.5 121.5z" />
<glyph unicode="&#xa8;" horiz-adv-x="870" d="M293 1178l63 237h201l-61 -237h-203zM684 1178l61 237h203l-61 -237h-203z" />
<glyph unicode="&#xa9;" horiz-adv-x="1703" d="M178 717q0 147 38.5 271t105.5 211t159 148t199 90t225 29q149 0 279.5 -47t232.5 -137.5t161.5 -236t59.5 -328.5q0 -147 -39 -270.5t-107 -211t-161 -148.5t-200.5 -90.5t-225.5 -29.5q-148 0 -278 47.5t-231 138.5t-159.5 236t-58.5 328zM297 717q0 -159 47 -284.5 t130.5 -204t192.5 -119.5t238 -41t239.5 41t195 119.5t132.5 204t48 284.5t-48 284.5t-132.5 204t-195 119.5t-239.5 41t-238 -41t-192.5 -119.5t-130.5 -204t-47 -284.5zM504 719q0 109 29.5 196t80 141.5t116.5 83.5t142 29q80 0 139 -28t83 -66l22 94h92v-309h-106 q-7 30 -19 58t-35.5 62.5t-65 55.5t-95.5 21q-106 0 -172 -84t-66 -242q0 -172 78.5 -254t212.5 -82q150 0 293 92l-8 -129l-15 -9t-42 -21t-66.5 -26t-86 -20.5t-102.5 -9.5q-186 0 -297.5 114t-111.5 333z" />
<glyph unicode="&#xaa;" horiz-adv-x="1036" d="M197 846q0 89 36 194.5t95 196.5t144.5 152t174.5 61q80 0 131.5 -46t69.5 -120l41 152h145q-10 -36 -48.5 -164.5t-76.5 -264t-59 -227.5l199 99l-33 -127q-20 -13 -51.5 -32.5t-101 -52t-105.5 -32.5q-30 0 -46 19t-16 48q0 31 19 101t33 108q-79 -122 -185 -199 t-201 -77q-82 0 -123.5 57.5t-41.5 153.5zM342 858q0 -100 64 -100q74 0 191 111.5t175 203.5q4 46 4 74q0 80 -27.5 135t-91.5 55q-75 0 -150 -80t-120 -192t-45 -207z" />
<glyph unicode="&#xab;" horiz-adv-x="1071" d="M31 494l10 32l494 488h190l-514 -525l250 -489h-162zM442 494l9 32l493 488h191l-512 -525l249 -489h-163z" />
<glyph unicode="&#xac;" horiz-adv-x="1011" d="M147 614l37 140h762l-104 -375h-152l70 235h-613z" />
<glyph unicode="&#xad;" horiz-adv-x="886" d="M135 578l35 137h651l-35 -137h-651z" />
<glyph unicode="&#xae;" horiz-adv-x="1703" d="M178 717q0 147 38.5 271t105.5 211t159 148t199 90t225 29q149 0 279.5 -47t232.5 -137.5t161.5 -236t59.5 -328.5q0 -147 -39 -270.5t-107 -211t-161 -148.5t-200.5 -90.5t-225.5 -29.5q-148 0 -278 47.5t-231 138.5t-159.5 236t-58.5 328zM297 717q0 -159 47 -284.5 t130.5 -204t192.5 -119.5t238 -41t239.5 41t194.5 119.5t131.5 204t47.5 284.5t-47.5 284.5t-131.5 204t-194.5 119.5t-239.5 41t-238 -41t-192.5 -119.5t-130.5 -204t-47 -284.5zM514 297v102h111v672h-111v100h389q150 0 239 -59t89 -172q0 -90 -57 -155t-166 -83 q71 -22 127 -106l131 -197h88v-102h-189l-149 248q-40 65 -82.5 94t-114.5 29h-57v-269h119v-102h-367zM762 768h125q92 0 147.5 42.5t55.5 121.5q0 139 -187 139h-141v-303z" />
<glyph unicode="&#xaf;" horiz-adv-x="751" d="M262 1184l33 129h612l-33 -129h-612z" />
<glyph unicode="&#xb0;" horiz-adv-x="878" d="M238 1098q0 156 98 251t250 95t251 -95t99 -251t-99 -251t-251 -95t-250 95t-98 251zM375 1098q0 -105 59.5 -169.5t151.5 -64.5q93 0 154 64.5t61 169.5q0 104 -60.5 168.5t-154.5 64.5q-92 0 -151.5 -64.5t-59.5 -168.5z" />
<glyph unicode="&#xb1;" horiz-adv-x="1169" d="M-23 0l37 137h961l-37 -137h-961zM176 754l37 139h403l109 416h149l-108 -416h410l-37 -139h-410l-111 -416h-149l111 416h-404z" />
<glyph unicode="&#xb2;" horiz-adv-x="761" d="M158 694l24 92l264 191q163 117 214 172t51 100q0 47 -28.5 72t-78.5 25q-74 0 -145 -48l-53 -151h-103l78 289h94l-6 -47q85 55 176 55q84 0 139.5 -45.5t55.5 -130.5q0 -79 -58 -143t-223 -181l-207 -147h373l-29 -103h-538z" />
<glyph unicode="&#xb3;" horiz-adv-x="718" d="M164 666l14 106q66 -8 115 -8q79 0 147.5 15.5t119 56.5t50.5 102q0 102 -139 102q-50 0 -121 -12l8 88l322 215h-369l29 103h496l-11 -97l-313 -209q91 0 158 -46t67 -142q0 -131 -129.5 -206t-328.5 -75q-66 0 -115 7z" />
<glyph unicode="&#xb4;" horiz-adv-x="733" d="M268 1212l437 355l149 -90l-485 -334z" />
<glyph unicode="&#xb5;" horiz-adv-x="1220" d="M-55 -430q17 74 47.5 201.5t126.5 477t192 646.5h-194l30 119h361q-25 -79 -61 -198.5t-97 -345.5t-61 -282q0 -29 16 -46t47 -17q50 0 124.5 49.5t144.5 121t125.5 136t84.5 107.5q6 16 23 78t40.5 149.5t33.5 122.5l-228 -8l33 120l391 17q-44 -142 -102.5 -362 t-94.5 -370l-36 -149q46 22 138 65.5t138 65.5l-32 -137q-25 -17 -64.5 -42t-127.5 -67t-134 -42q-36 0 -55 22t-19 55q0 65 68 295q-47 -66 -99 -124.5t-117.5 -118t-138 -94.5t-139.5 -35q-72 0 -114 36l-107 -446h-143z" />
<glyph unicode="&#xb6;" horiz-adv-x="1562" d="M4 -301q0 47 8 86l168 39q-8 -41 -8 -92q0 -136 75.5 -213.5t229.5 -77.5q46 0 85.5 8t70.5 20.5t58.5 36t47 45t38.5 57t31.5 63.5t27 73t23.5 76.5t22 82.5q1 5 2 7l22 90h-98q-111 0 -202.5 15.5t-177.5 55t-145 102t-94.5 163.5t-35.5 233q0 172 58 328.5t163 276 t263.5 190t346.5 70.5h737l-32 -125h-271l-313 -1186h282l-32 -123h-283l-59 -242q-27 -107 -69 -189t-106 -145.5t-155.5 -97t-208.5 -33.5q-218 0 -343.5 110.5t-125.5 295.5zM319 590q0 -228 123.5 -342.5t358.5 -114.5h133l311 1165h-231q-142 0 -267.5 -48t-221 -136 t-151 -223.5t-55.5 -300.5z" />
<glyph unicode="&#xb7;" horiz-adv-x="569" d="M158 563l78 301h280l-78 -301h-280z" />
<glyph unicode="&#xb8;" horiz-adv-x="743" d="M-35 -530l25 116q22 -18 85.5 -40.5t125.5 -22.5q159 0 159 106q0 121 -258 133l168 258h117l-100 -167q105 -13 162 -71t57 -147q0 -107 -81 -170t-212 -63q-74 0 -142.5 20.5t-105.5 47.5z" />
<glyph unicode="&#xb9;" horiz-adv-x="714" d="M166 694l27 103h196l137 508l-227 -84l29 114l278 101h74l-172 -639h190l-28 -103h-504z" />
<glyph unicode="&#xba;" horiz-adv-x="868" d="M211 924q0 72 19.5 146.5t58.5 143t92 122.5t126 86t155 32q125 0 198.5 -73.5t73.5 -211.5q0 -69 -18.5 -142.5t-56.5 -143t-90.5 -124.5t-126.5 -88.5t-159 -33.5q-128 0 -200 74.5t-72 212.5zM354 932q0 -86 36.5 -130t105.5 -44q66 0 123.5 39t94.5 99t58 130t21 135 q0 170 -144 170q-86 0 -156 -64.5t-104.5 -154.5t-34.5 -180z" />
<glyph unicode="&#xbb;" horiz-adv-x="1079" d="M-59 0l518 524l-250 490h164l266 -494l-8 -33l-500 -487h-190zM350 0l520 524l-249 490h161l269 -494l-11 -33l-499 -487h-191z" />
<glyph unicode="&#xbc;" horiz-adv-x="1896" d="M102 31l1860 1499l61 -70l-1855 -1499zM156 694l26 103h197l139 508l-231 -84l30 114l277 101h76l-174 -639h192l-29 -103h-503zM1122 188l27 101l405 467h127l-407 -465h242l53 186h114l-51 -186h137l-26 -103h-137l-54 -188h-114l51 188h-367z" />
<glyph unicode="&#xbd;" horiz-adv-x="1929" d="M94 31l1858 1499l61 -70l-1853 -1499q-6 7 -30 31.5t-36 38.5zM145 694l27 103h199l137 508l-229 -84l28 114l279 101h73l-172 -639h191l-27 -103h-506zM1174 0l24 92l264 191q163 117 213.5 172t50.5 100q0 47 -28 71.5t-78 24.5q-75 0 -145 -47l-54 -151h-102l78 288 h94l-6 -47q87 56 176 56q84 0 139 -46t55 -131q0 -79 -58 -143t-222 -180l-207 -148h373q-1 -2 -29 -102h-538z" />
<glyph unicode="&#xbe;" horiz-adv-x="1886" d="M84 31l1858 1499l61 -70l-1853 -1499zM160 666l14 106q66 -8 115 -8q79 0 147.5 15.5t119 56.5t50.5 102q0 102 -139 102q-51 0 -121 -12l8 88l322 215h-369l29 103h495l-10 -97l-313 -209q91 0 158 -46t67 -142q0 -131 -130 -206t-329 -75q-65 0 -114 7zM1102 188 l26 101l414 467h133l-415 -465h247l52 186h116l-51 -186h135l-26 -103h-138l-51 -188h-114l51 188h-379z" />
<glyph unicode="&#xbf;" horiz-adv-x="911" d="M-78 -170q0 64 22 123.5t59.5 108.5t84 94.5t97.5 91t96.5 89t86 97t62.5 107.5h152q-29 -84 -89.5 -163.5t-123.5 -139.5t-123 -119.5t-98.5 -126.5t-38.5 -137q0 -77 43.5 -117.5t121.5 -40.5q116 0 222 92l53 182h129l-103 -397h-114l12 86q-100 -100 -260 -100 q-137 0 -214 73.5t-77 196.5zM403 713l80 301h281l-80 -301h-281z" />
<glyph unicode="&#xc0;" horiz-adv-x="1441" d="M-137 0l31 123h192l809 1186h-225l41 125h555l-138 -1311h199l-31 -123h-561l31 123h201l53 426h-467l-281 -426h207l-30 -123h-586zM635 678h397l70 631h-45zM733 1898l150 91l436 -355l-100 -69z" />
<glyph unicode="&#xc1;" horiz-adv-x="1441" d="M-137 0l31 123h192l809 1186h-225l41 125h555l-138 -1311h199l-31 -123h-561l31 123h201l53 426h-467l-281 -426h207l-30 -123h-586zM635 678h397l70 631h-45zM831 1634l437 355l149 -91l-485 -333z" />
<glyph unicode="&#xc2;" horiz-adv-x="1441" d="M-137 0l31 123h192l809 1186h-225l41 125h555l-138 -1311h199l-31 -123h-561l31 123h201l53 426h-467l-281 -426h207l-30 -123h-586zM635 678h397l70 631h-45zM739 1636l381 336h107l200 -362l-114 -51l-162 256l-322 -261z" />
<glyph unicode="&#xc3;" horiz-adv-x="1441" d="M-137 0l31 123h192l809 1186h-225l41 125h555l-138 -1311h199l-31 -123h-561l31 123h201l53 426h-467l-281 -426h207l-30 -123h-586zM635 678h397l70 631h-45zM729 1606q28 119 85 166t124 47q42 0 83.5 -17.5t69.5 -38t64.5 -38t69.5 -17.5t55 25.5t41 99.5l113 -37 q-37 -225 -207 -225q-46 0 -91 16.5t-74 36.5t-63 36.5t-59 16.5q-68 0 -98 -116z" />
<glyph unicode="&#xc4;" horiz-adv-x="1441" d="M-137 0l31 123h192l809 1186h-225l41 125h555l-138 -1311h199l-31 -123h-561l31 123h201l53 426h-467l-281 -426h207l-30 -123h-586zM635 678h397l70 631h-45zM799 1585l63 238h201l-62 -238h-202zM1190 1585l61 238h203l-61 -238h-203z" />
<glyph unicode="&#xc5;" horiz-adv-x="1441" d="M-137 0l31 123h192l809 1186h-225l41 125h149q-51 70 -51 174q0 141 91.5 222t223.5 81q131 0 222.5 -79.5t91.5 -223.5q0 -104 -50 -174t-133 -103l-127 -1208h199l-31 -123h-561l31 123h201l53 426h-467l-281 -426h207l-30 -123h-586zM635 678h397l70 631h-45z M961 1608q0 -77 32 -120t86 -54h84q54 11 87.5 54t33.5 120q0 92 -47 137t-115 45t-114.5 -45t-46.5 -137z" />
<glyph unicode="&#xc6;" horiz-adv-x="2154" d="M-170 0l33 123h209l917 1186h-227l35 125h1370l-84 -355h-127l29 219h-584l-137 -510h313l55 207h144l-142 -536h-143l53 198h-313l-137 -524h718l105 225h127l-115 -358h-1257l30 123h218l139 534h-395l-398 -534h240l-31 -123h-645zM760 788h332l137 521h-82z" />
<glyph unicode="&#xc7;" horiz-adv-x="1286" d="M154 502q0 108 22.5 221t64 218.5t103.5 199t137.5 163t171 110t197.5 40.5q66 0 119 -16t86.5 -43.5t53.5 -54t32 -56.5l49 150h127l-115 -447l-135 -4q0 4 1 29.5t1 42.5q0 270 -215 270q-113 0 -214.5 -75t-169.5 -192.5t-108 -259t-40 -276.5q0 -208 92.5 -304.5 t249.5 -96.5q80 0 160.5 23.5t138.5 56.5t104.5 66.5t70.5 56.5l23 24l-20 -176q-7 -8 -20.5 -21t-60.5 -46t-100 -58t-139 -46t-178 -21h-20l-76 -127q105 -13 162 -71t57 -147q0 -107 -80 -170t-211 -63q-76 0 -144.5 20.5t-105.5 47.5l25 116q23 -18 86 -40.5t131 -22.5 q70 0 112 26.5t42 79.5q0 121 -259 133l148 230q-172 33 -264 161.5t-92 348.5z" />
<glyph unicode="&#xc8;" horiz-adv-x="1429" d="M-53 0l30 123h220l313 1186h-219l33 125h1118l-84 -355h-127l29 219h-584l-137 -510h313l55 207h144l-142 -536h-143l53 198h-313l-137 -524h718l105 225h127l-115 -358h-1257zM557 1898l150 91l436 -355l-101 -69z" />
<glyph unicode="&#xc9;" horiz-adv-x="1429" d="M-53 0l30 123h220l313 1186h-219l33 125h1118l-84 -355h-127l29 219h-584l-137 -510h313l55 207h144l-142 -536h-143l53 198h-313l-137 -524h718l105 225h127l-115 -358h-1257zM739 1634l437 355l149 -91l-485 -333z" />
<glyph unicode="&#xca;" horiz-adv-x="1429" d="M-53 0l30 123h220l313 1186h-219l33 125h1118l-84 -355h-127l29 219h-584l-137 -510h313l55 207h144l-142 -536h-143l53 198h-313l-137 -524h718l105 225h127l-115 -358h-1257zM569 1636l381 336h107l200 -362l-114 -51l-162 256l-322 -261z" />
<glyph unicode="&#xcb;" horiz-adv-x="1429" d="M-53 0l30 123h220l313 1186h-219l33 125h1118l-84 -355h-127l29 219h-584l-137 -510h313l55 207h144l-142 -536h-143l53 198h-313l-137 -524h718l105 225h127l-115 -358h-1257zM627 1604l63 237h201l-62 -237h-202zM1018 1604l61 237h203l-61 -237h-203z" />
<glyph unicode="&#xcc;" horiz-adv-x="831" d="M-68 0l33 123h271l311 1186h-271l35 125h697l-33 -125h-260l-312 -1186h261l-33 -123h-699zM389 1898l150 91l436 -355l-101 -69z" />
<glyph unicode="&#xcd;" horiz-adv-x="831" d="M-68 0l33 123h271l311 1186h-271l35 125h697l-33 -125h-260l-312 -1186h261l-33 -123h-699zM424 1634l436 355l150 -91l-486 -333z" />
<glyph unicode="&#xce;" horiz-adv-x="831" d="M-68 0l33 123h271l311 1186h-271l35 125h697l-33 -125h-260l-312 -1186h261l-33 -123h-699zM354 1636l381 336h107l200 -362l-114 -51l-162 256l-322 -261z" />
<glyph unicode="&#xcf;" horiz-adv-x="831" d="M-68 0l33 123h271l311 1186h-271l35 125h697l-33 -125h-260l-312 -1186h261l-33 -123h-699zM393 1604l64 237h200l-61 -237h-203zM784 1604l62 237h203l-62 -237h-203z" />
<glyph unicode="&#xd0;" horiz-adv-x="1505" d="M-23 0l31 123h219l144 536h-211l30 132h213l140 518h-221l32 125h613q112 0 201 -30t157 -93t104.5 -169t36.5 -251q0 -195 -67 -362.5t-182 -282.5t-272.5 -180.5t-334.5 -65.5h-633zM393 123h205q200 0 361 104t250 282t89 392q0 202 -93.5 305t-311.5 103h-188 l-138 -518h359l-31 -132h-360z" />
<glyph unicode="&#xd1;" horiz-adv-x="1607" d="M-41 0l33 123h219l311 1186h-221l35 125h407l365 -1209l278 1084h-225l33 125h586l-35 -125h-209l-344 -1309h-170l-371 1251l-280 -1128h221l-31 -123h-602zM692 1618q28 119 85 166t124 47q42 0 83.5 -17.5t69.5 -38t64.5 -38t69.5 -17.5t55 25.5t41 99.5l113 -37 q-37 -225 -207 -225q-46 0 -91 16.5t-74 37t-63 37t-59 16.5q-68 0 -98 -117z" />
<glyph unicode="&#xd2;" d="M150 489q0 128 30 261.5t93 259.5t149 225t208 159t261 60q98 0 178 -30t140.5 -91t94 -161t33.5 -232q0 -106 -21.5 -216.5t-62 -218t-104.5 -202.5t-143.5 -167t-185 -114t-222.5 -42q-98 0 -178 29.5t-141.5 89.5t-95 159t-33.5 231zM315 479q0 -182 81 -272t216 -90 q173 0 306.5 140.5t205.5 383.5q52 175 52 315q0 181 -81.5 272t-215.5 91q-170 0 -305.5 -140.5t-208.5 -387.5q-50 -168 -50 -312zM645 1898l150 91l436 -355l-101 -69z" />
<glyph unicode="&#xd3;" d="M150 489q0 128 30 261.5t93 259.5t149 225t208 159t261 60q98 0 178 -30t140.5 -91t94 -161t33.5 -232q0 -106 -21.5 -216.5t-62 -218t-104.5 -202.5t-143.5 -167t-185 -114t-222.5 -42q-98 0 -178 29.5t-141.5 89.5t-95 159t-33.5 231zM315 479q0 -182 81 -272t216 -90 q173 0 306.5 140.5t205.5 383.5q52 175 52 315q0 181 -81.5 272t-215.5 91q-170 0 -305.5 -140.5t-208.5 -387.5q-50 -168 -50 -312zM678 1634l436 355l150 -91l-486 -333z" />
<glyph unicode="&#xd4;" d="M150 489q0 128 30 261.5t93 259.5t149 225t208 159t261 60q98 0 178 -30t140.5 -91t94 -161t33.5 -232q0 -106 -21.5 -216.5t-62 -218t-104.5 -202.5t-143.5 -167t-185 -114t-222.5 -42q-98 0 -178 29.5t-141.5 89.5t-95 159t-33.5 231zM315 479q0 -182 81 -272t216 -90 q173 0 306.5 140.5t205.5 383.5q52 175 52 315q0 181 -81.5 272t-215.5 91q-170 0 -305.5 -140.5t-208.5 -387.5q-50 -168 -50 -312zM580 1636l381 336h106l201 -362l-115 -51l-162 256l-321 -261z" />
<glyph unicode="&#xd5;" d="M150 489q0 128 30 261.5t93 259.5t149 225t208 159t261 60q98 0 178 -30t140.5 -91t94 -161t33.5 -232q0 -106 -21.5 -216.5t-62 -218t-104.5 -202.5t-143.5 -167t-185 -114t-222.5 -42q-98 0 -178 29.5t-141.5 89.5t-95 159t-33.5 231zM315 479q0 -182 81 -272t216 -90 q173 0 306.5 140.5t205.5 383.5q52 175 52 315q0 181 -81.5 272t-215.5 91q-170 0 -305.5 -140.5t-208.5 -387.5q-50 -168 -50 -312zM578 1606q28 119 84.5 166t123.5 47q42 0 83.5 -17.5t69.5 -38t64.5 -38t69.5 -17.5t55 25.5t41 99.5l113 -37q-37 -225 -207 -225 q-46 0 -91 16.5t-74 36.5t-63 36.5t-59 16.5q-68 0 -98 -116z" />
<glyph unicode="&#xd6;" d="M150 489q0 128 30 261.5t93 259.5t149 225t208 159t261 60q98 0 178 -30t140.5 -91t94 -161t33.5 -232q0 -106 -21.5 -216.5t-62 -218t-104.5 -202.5t-143.5 -167t-185 -114t-222.5 -42q-98 0 -178 29.5t-141.5 89.5t-95 159t-33.5 231zM315 479q0 -182 81 -272t216 -90 q173 0 306.5 140.5t205.5 383.5q52 175 52 315q0 181 -81.5 272t-215.5 91q-170 0 -305.5 -140.5t-208.5 -387.5q-50 -168 -50 -312zM635 1604l63 237h201l-61 -237h-203zM1026 1604l61 237h203l-61 -237h-203z" />
<glyph unicode="&#xd7;" horiz-adv-x="1329" d="M25 260l598 467l-351 471l119 90l346 -473l576 457l90 -113l-576 -452l347 -469l-119 -95l-350 475l-599 -473z" />
<glyph unicode="&#xd8;" d="M31 -129l209 272q-90 129 -90 344q0 129 30 262.5t93 260t149 225.5t208 159t261 60q173 0 289 -94l209 272l94 -67l-226 -293q80 -129 80 -332q0 -106 -21.5 -216.5t-62 -218t-104.5 -202.5t-143.5 -167t-185 -114t-222.5 -42q-165 0 -274 79l-199 -260zM315 479 q0 -109 33 -196l735 954q-76 82 -204 82q-170 0 -305.5 -140.5t-208.5 -387.5q-50 -168 -50 -312zM420 182q74 -65 192 -65q173 0 306.5 140.5t205.5 383.5q52 175 52 313q0 97 -27 176z" />
<glyph unicode="&#xd9;" horiz-adv-x="1622" d="M252 338q0 81 27 186q132 502 206 785h-209l35 125h604l-32 -125h-230l-204 -783q-27 -100 -27 -174q0 -237 305 -237q85 0 151 18t128.5 62.5t110 127t79.5 203.5l207 783h-240l33 125h606l-35 -125h-208l-207 -797q-34 -129 -83 -224.5t-105.5 -154t-129 -93.5 t-144 -47.5t-159.5 -12.5q-479 0 -479 358zM752 1898l149 91l436 -355l-100 -69z" />
<glyph unicode="&#xda;" horiz-adv-x="1622" d="M252 338q0 81 27 186q132 502 206 785h-209l35 125h604l-32 -125h-230l-204 -783q-27 -100 -27 -174q0 -237 305 -237q85 0 151 18t128.5 62.5t110 127t79.5 203.5l207 783h-240l33 125h606l-35 -125h-208l-207 -797q-34 -129 -83 -224.5t-105.5 -154t-129 -93.5 t-144 -47.5t-159.5 -12.5q-479 0 -479 358zM834 1634l436 355l149 -91l-485 -333z" />
<glyph unicode="&#xdb;" horiz-adv-x="1622" d="M252 338q0 81 27 186q132 502 206 785h-209l35 125h604l-32 -125h-230l-204 -783q-27 -100 -27 -174q0 -237 305 -237q85 0 151 18t128.5 62.5t110 127t79.5 203.5l207 783h-240l33 125h606l-35 -125h-208l-207 -797q-34 -129 -83 -224.5t-105.5 -154t-129 -93.5 t-144 -47.5t-159.5 -12.5q-479 0 -479 358zM715 1636l381 336h106l201 -362l-115 -51l-162 256l-321 -261z" />
<glyph unicode="&#xdc;" horiz-adv-x="1622" d="M252 338q0 81 27 186q132 502 206 785h-209l35 125h604l-32 -125h-230l-204 -783q-27 -100 -27 -174q0 -237 305 -237q85 0 151 18t128.5 62.5t110 127t79.5 203.5l207 783h-240l33 125h606l-35 -125h-208l-207 -797q-34 -129 -83 -224.5t-105.5 -154t-129 -93.5 t-144 -47.5t-159.5 -12.5q-479 0 -479 358zM791 1604l63 237h201l-62 -237h-202zM1182 1604l61 237h203l-62 -237h-202z" />
<glyph unicode="&#xdd;" horiz-adv-x="1398" d="M209 1309l33 125h569l-33 -125h-211l183 -643l510 643h-230l33 125h592l-33 -125h-190l-633 -774l-107 -408h219l-32 -127h-607l33 127h219l107 414l-228 768h-194zM778 1634l436 355l150 -91l-485 -333z" />
<glyph unicode="&#xde;" horiz-adv-x="1347" d="M-55 0l32 123h226l311 1186h-227l32 125h654l-33 -125h-258l-43 -164h358q162 0 268.5 -96.5t106.5 -270.5q0 -145 -79 -256t-215 -169t-308 -58h-74l-24 143h86q71 0 135.5 12.5t122 39t99.5 65t66.5 94.5t24.5 123q0 82 -36 137.5t-89.5 78t-119.5 22.5h-355l-231 -887 h254l-33 -123h-651z" />
<glyph unicode="&#xdf;" horiz-adv-x="1198" d="M-354 -365l100 111q12 -46 60.5 -82.5t117.5 -36.5q41 0 72.5 16t50 36.5t34.5 58t22.5 62.5t15.5 67l211 1018h-219l26 129h221l33 135q42 171 149 267.5t263 96.5q138 0 228.5 -72.5t90.5 -195.5q0 -65 -28.5 -129t-69.5 -114.5t-82 -97t-69.5 -91.5t-28.5 -82 q0 -35 25 -75t60.5 -80t71.5 -84.5t61 -103.5t25 -122q0 -123 -86.5 -204.5t-242.5 -81.5q-88 0 -163.5 24.5t-100.5 54.5l26 134q22 -29 88 -59t135 -30q78 0 130.5 41t52.5 113q0 47 -25 94.5t-60.5 88t-71 82t-60.5 91.5t-25 101q0 55 29.5 112t72 105t84.5 95t71.5 100 t29.5 104q0 67 -47 107t-127 40q-110 0 -173.5 -89.5t-107.5 -305.5l-237 -1157q-69 -342 -357 -342q-118 0 -189.5 49t-86.5 102z" />
<glyph unicode="&#xe0;" horiz-adv-x="1191" d="M49 248q0 94 30 202.5t85 211t126 186.5t161 135t182 51q105 0 173 -65t83 -174l57 219h164q-7 -28 -107.5 -369.5t-136.5 -503.5l273 127l-33 -137q-25 -17 -65.5 -42t-129.5 -67t-135 -42q-37 0 -56.5 22.5t-19.5 56.5q0 42 27.5 147t44.5 148q-110 -164 -245.5 -269 t-264.5 -105q-109 0 -161 73t-52 195zM217 246q0 -135 86 -135q70 0 176 81t190 176.5t140 178.5q0 3 2 21.5t4 45.5t2 50q0 45 -8 85.5t-26 78.5t-52.5 60.5t-81.5 22.5q-82 0 -163.5 -69.5t-139 -171t-93.5 -217t-36 -207.5zM426 1477l149 90l437 -355l-101 -69z" />
<glyph unicode="&#xe1;" horiz-adv-x="1191" d="M49 248q0 94 30 202.5t85 211t126 186.5t161 135t182 51q105 0 173 -65t83 -174l57 219h164q-7 -28 -107.5 -369.5t-136.5 -503.5l273 127l-33 -137q-25 -17 -65.5 -42t-129.5 -67t-135 -42q-37 0 -56.5 22.5t-19.5 56.5q0 42 27.5 147t44.5 148q-110 -164 -245.5 -269 t-264.5 -105q-109 0 -161 73t-52 195zM217 246q0 -135 86 -135q70 0 176 81t190 176.5t140 178.5q0 3 2 21.5t4 45.5t2 50q0 45 -8 85.5t-26 78.5t-52.5 60.5t-81.5 22.5q-82 0 -163.5 -69.5t-139 -171t-93.5 -217t-36 -207.5zM539 1212l436 355l149 -90l-485 -334z" />
<glyph unicode="&#xe2;" horiz-adv-x="1191" d="M49 248q0 94 30 202.5t85 211t126 186.5t161 135t182 51q105 0 173 -65t83 -174l57 219h164q-7 -28 -107.5 -369.5t-136.5 -503.5l273 127l-33 -137q-25 -17 -65.5 -42t-129.5 -67t-135 -42q-37 0 -56.5 22.5t-19.5 56.5q0 42 27.5 147t44.5 148q-110 -164 -245.5 -269 t-264.5 -105q-109 0 -161 73t-52 195zM217 246q0 -135 86 -135q70 0 176 81t190 176.5t140 178.5q0 3 2 21.5t4 45.5t2 50q0 45 -8 85.5t-26 78.5t-52.5 60.5t-81.5 22.5q-82 0 -163.5 -69.5t-139 -171t-93.5 -217t-36 -207.5zM389 1214l381 336h107l200 -362l-114 -51 l-162 256l-322 -260z" />
<glyph unicode="&#xe3;" horiz-adv-x="1191" d="M49 248q0 94 30 202.5t85 211t126 186.5t161 135t182 51q105 0 173 -65t83 -174l57 219h164q-7 -28 -107.5 -369.5t-136.5 -503.5l273 127l-33 -137q-25 -17 -65.5 -42t-129.5 -67t-135 -42q-37 0 -56.5 22.5t-19.5 56.5q0 42 27.5 147t44.5 148q-110 -164 -245.5 -269 t-264.5 -105q-109 0 -161 73t-52 195zM217 246q0 -135 86 -135q70 0 176 81t190 176.5t140 178.5q0 3 2 21.5t4 45.5t2 50q0 45 -8 85.5t-26 78.5t-52.5 60.5t-81.5 22.5q-82 0 -163.5 -69.5t-139 -171t-93.5 -217t-36 -207.5zM356 1202q28 119 85 166t124 47 q53 0 103.5 -27.5t96.5 -55t87 -27.5q33 0 55 25.5t41 99.5l113 -37q-37 -226 -207 -226q-46 0 -91 16.5t-74 37t-63 37t-59 16.5q-68 0 -98 -117z" />
<glyph unicode="&#xe4;" horiz-adv-x="1191" d="M49 248q0 94 30 202.5t85 211t126 186.5t161 135t182 51q105 0 173 -65t83 -174l57 219h164q-7 -28 -107.5 -369.5t-136.5 -503.5l273 127l-33 -137q-25 -17 -65.5 -42t-129.5 -67t-135 -42q-37 0 -56.5 22.5t-19.5 56.5q0 42 27.5 147t44.5 148q-110 -164 -245.5 -269 t-264.5 -105q-109 0 -161 73t-52 195zM217 246q0 -135 86 -135q70 0 176 81t190 176.5t140 178.5q0 3 2 21.5t4 45.5t2 50q0 45 -8 85.5t-26 78.5t-52.5 60.5t-81.5 22.5q-82 0 -163.5 -69.5t-139 -171t-93.5 -217t-36 -207.5zM414 1178l63 237h201l-62 -237h-202zM805 1178 l61 237h203l-61 -237h-203z" />
<glyph unicode="&#xe5;" horiz-adv-x="1191" d="M49 248q0 94 30 202.5t85 211t126 186.5t161 135t182 51q105 0 173 -65t83 -174l57 219h164q-7 -28 -107.5 -369.5t-136.5 -503.5l273 127l-33 -137q-25 -17 -65.5 -42t-129.5 -67t-135 -42q-37 0 -56.5 22.5t-19.5 56.5q0 42 27.5 147t44.5 148q-110 -164 -245.5 -269 t-264.5 -105q-109 0 -161 73t-52 195zM217 246q0 -135 86 -135q70 0 176 81t190 176.5t140 178.5q0 3 2 21.5t4 45.5t2 50q0 45 -8 85.5t-26 78.5t-52.5 60.5t-81.5 22.5q-82 0 -163.5 -69.5t-139 -171t-93.5 -217t-36 -207.5zM481 1405q0 123 78 190.5t195 67.5 q116 0 194 -68t78 -192q0 -122 -78.5 -190t-193.5 -68q-117 0 -195 68t-78 192zM614 1403q0 -77 41 -114.5t99 -37.5q56 0 96.5 37.5t40.5 114.5q0 78 -39.5 114.5t-97.5 36.5t-99 -36.5t-41 -114.5z" />
<glyph unicode="&#xe6;" horiz-adv-x="1640" d="M49 248q0 94 30 202.5t85 211t126 186.5t161 135t182 51q99 0 164 -58t86 -157q83 104 192 159.5t228 55.5q129 0 205.5 -62.5t76.5 -164.5q0 -106 -81.5 -174.5t-213.5 -102.5q-152 -41 -391 -41q-16 -72 -16 -124q0 -124 60 -187t171 -63q57 0 119 14t109.5 33.5 t87 39.5t60.5 34l21 14l-43 -164q-6 -4 -18 -11.5t-51.5 -25.5t-81.5 -32t-106 -25.5t-128 -11.5q-157 0 -252 78t-112 223q-104 -135 -224 -218t-233 -83q-109 0 -161 73t-52 195zM217 246q0 -135 86 -135q80 0 197 96t223 225q7 41 25 111q25 97 67 170q-9 85 -48.5 141.5 t-117.5 56.5q-82 0 -163.5 -69.5t-139 -171t-93.5 -217t-36 -207.5zM944 614q214 0 351 53.5t137 141.5q0 48 -40.5 74t-101.5 26q-109 0 -203 -83t-143 -212z" />
<glyph unicode="&#xe7;" horiz-adv-x="989" d="M63 -530l25 116q23 -18 86 -40.5t131 -22.5q70 0 112 26.5t42 79.5q0 121 -258 133l147 228q-126 26 -198 117.5t-72 254.5q0 169 75.5 326t195.5 251.5t245 94.5q72 0 121.5 -31.5t68.5 -76.5l50 108h110l-96 -362h-123q6 61 6 88q0 70 -33.5 111.5t-93.5 41.5t-125 -43 t-118 -113t-87 -169t-34 -203q0 -270 235 -270q117 0 239 56.5t160 98.5l-36 -164q-50 -42 -154.5 -82.5t-222.5 -43.5l-76 -127q105 -13 162 -71t57 -147q0 -107 -80 -170t-211 -63q-76 0 -144.5 20.5t-105.5 47.5z" />
<glyph unicode="&#xe8;" horiz-adv-x="995" d="M72 336q0 96 30 207q43 155 129 267.5t195.5 168t230.5 55.5q129 0 206 -62.5t77 -164.5q0 -198 -295 -277q-152 -41 -391 -41q-16 -72 -16 -124q0 -125 60 -187.5t175 -62.5q55 0 116 14t108 33.5t86.5 39.5t60.5 34l22 14l-43 -164q-7 -4 -19 -11.5t-51.5 -25.5 t-81 -32t-103.5 -25.5t-122 -11.5q-179 0 -276.5 93.5t-97.5 262.5zM299 614q214 0 350.5 53.5t136.5 141.5q0 48 -40 74t-101 26q-109 0 -203 -83t-143 -212zM362 1477l150 90l436 -355l-100 -69z" />
<glyph unicode="&#xe9;" horiz-adv-x="995" d="M72 336q0 96 30 207q43 155 129 267.5t195.5 168t230.5 55.5q129 0 206 -62.5t77 -164.5q0 -198 -295 -277q-152 -41 -391 -41q-16 -72 -16 -124q0 -125 60 -187.5t175 -62.5q55 0 116 14t108 33.5t86.5 39.5t60.5 34l22 14l-43 -164q-7 -4 -19 -11.5t-51.5 -25.5 t-81 -32t-103.5 -25.5t-122 -11.5q-179 0 -276.5 93.5t-97.5 262.5zM299 614q214 0 350.5 53.5t136.5 141.5q0 48 -40 74t-101 26q-109 0 -203 -83t-143 -212zM385 1212l436 355l150 -90l-486 -334z" />
<glyph unicode="&#xea;" horiz-adv-x="995" d="M72 336q0 96 30 207q43 155 129 267.5t195.5 168t230.5 55.5q129 0 206 -62.5t77 -164.5q0 -198 -295 -277q-152 -41 -391 -41q-16 -72 -16 -124q0 -125 60 -187.5t175 -62.5q55 0 116 14t108 33.5t86.5 39.5t60.5 34l22 14l-43 -164q-7 -4 -19 -11.5t-51.5 -25.5 t-81 -32t-103.5 -25.5t-122 -11.5q-179 0 -276.5 93.5t-97.5 262.5zM299 614q214 0 350.5 53.5t136.5 141.5q0 48 -40 74t-101 26q-109 0 -203 -83t-143 -212zM315 1214l381 336h107l201 -362l-115 -51l-162 256l-321 -260z" />
<glyph unicode="&#xeb;" horiz-adv-x="995" d="M72 336q0 96 30 207q43 155 129 267.5t195.5 168t230.5 55.5q129 0 206 -62.5t77 -164.5q0 -198 -295 -277q-152 -41 -391 -41q-16 -72 -16 -124q0 -125 60 -187.5t175 -62.5q55 0 116 14t108 33.5t86.5 39.5t60.5 34l22 14l-43 -164q-7 -4 -19 -11.5t-51.5 -25.5 t-81 -32t-103.5 -25.5t-122 -11.5q-179 0 -276.5 93.5t-97.5 262.5zM299 614q214 0 350.5 53.5t136.5 141.5q0 48 -40 74t-101 26q-109 0 -203 -83t-143 -212zM340 1178l63 237h201l-61 -237h-203zM731 1178l62 237h202l-61 -237h-203z" />
<glyph unicode="&#xec;" horiz-adv-x="616" d="M100 1477l150 90l436 -355l-100 -69zM119 895l31 119h395q-9 -36 -109 -374.5t-137 -498.5l276 127l-32 -137q-26 -17 -68 -42t-133 -67t-135 -42q-35 0 -59.5 21.5t-24.5 53.5q0 41 42.5 202t111 395t71.5 243h-229z" />
<glyph unicode="&#xed;" horiz-adv-x="616" d="M119 895l31 119h395q-9 -36 -109 -374.5t-137 -498.5l276 127l-32 -137q-26 -17 -68 -42t-133 -67t-135 -42q-35 0 -59.5 21.5t-24.5 53.5q0 41 42.5 202t111 395t71.5 243h-229zM168 1212l436 355l150 -90l-486 -334z" />
<glyph unicode="&#xee;" horiz-adv-x="616" d="M109 1214l380 336h107l201 -362l-115 -51l-162 256l-321 -260zM119 895l31 119h395q-9 -36 -109 -374.5t-137 -498.5l276 127l-32 -137q-26 -17 -68 -42t-133 -67t-135 -42q-35 0 -59.5 21.5t-24.5 53.5q0 41 42.5 202t111 395t71.5 243h-229z" />
<glyph unicode="&#xef;" horiz-adv-x="616" d="M119 895l31 119h395q-9 -36 -109 -374.5t-137 -498.5l276 127l-32 -137q-26 -17 -68 -42t-133 -67t-135 -42q-35 0 -59.5 21.5t-24.5 53.5q0 41 42.5 202t111 395t71.5 243h-229zM162 1178l63 237h201l-61 -237h-203zM553 1178l61 237h203l-61 -237h-203z" />
<glyph unicode="&#xf0;" horiz-adv-x="1087" d="M76 354q0 90 23.5 184.5t71 183t111.5 158.5t152.5 112t186.5 42q156 0 227 -96q-45 159 -133 301l-238 -90l-22 96l204 80q-91 128 -145 168l162 47q57 -49 125 -149l237 94l25 -101l-209 -79q73 -125 118.5 -274.5t45.5 -299.5q0 -84 -15.5 -170t-45.5 -170.5t-79 -158 t-111 -130.5t-147 -89.5t-182 -32.5q-166 0 -264 95t-98 279zM238 352q0 -123 53 -184.5t151 -61.5q92 0 173 54t132.5 137t81 178t29.5 182q0 126 -58 186t-153 60q-74 0 -140.5 -35t-114.5 -92t-83.5 -129t-53 -148t-17.5 -147z" />
<glyph unicode="&#xf1;" horiz-adv-x="1220" d="M72 0l239 895h-164l31 119h330q-20 -73 -109 -352q57 75 108.5 133t116 114.5t134 87.5t137.5 31q89 0 137.5 -50t48.5 -118q0 -126 -192 -719l274 127l-33 -137q-26 -17 -66.5 -42t-130 -67t-134.5 -42q-39 0 -61.5 24.5t-22.5 52.5q0 42 104.5 369t104.5 395 q0 32 -17 49t-47 17q-55 0 -139.5 -58.5t-160 -135t-131.5 -142t-69 -88.5l-120 -463h-168zM395 1202q28 119 85 166t124 47q53 0 103.5 -27.5t96.5 -55t87 -27.5q33 0 55 25.5t41 99.5l113 -37q-37 -226 -207 -226q-46 0 -91 16.5t-74 37t-63 37t-59 16.5q-68 0 -98 -117z " />
<glyph unicode="&#xf2;" horiz-adv-x="1089" d="M76 352q0 84 20.5 174t66 181.5t110.5 163.5t162 117.5t212 45.5q168 0 267.5 -95t99.5 -277q0 -88 -23 -181t-71.5 -183t-115 -160.5t-162.5 -114t-206 -43.5q-164 0 -262 95t-98 277zM236 356q0 -128 59 -189t156 -61q75 0 141.5 35.5t113.5 92.5t81.5 129t51.5 145.5 t17 140.5q0 130 -61 192t-158 62q-93 0 -171.5 -54t-127 -137t-75.5 -176.5t-27 -179.5zM393 1477l150 90l436 -355l-100 -69z" />
<glyph unicode="&#xf3;" horiz-adv-x="1089" d="M76 352q0 84 20.5 174t66 181.5t110.5 163.5t162 117.5t212 45.5q168 0 267.5 -95t99.5 -277q0 -88 -23 -181t-71.5 -183t-115 -160.5t-162.5 -114t-206 -43.5q-164 0 -262 95t-98 277zM236 356q0 -128 59 -189t156 -61q75 0 141.5 35.5t113.5 92.5t81.5 129t51.5 145.5 t17 140.5q0 130 -61 192t-158 62q-93 0 -171.5 -54t-127 -137t-75.5 -176.5t-27 -179.5zM383 1212l436 355l150 -90l-486 -334z" />
<glyph unicode="&#xf4;" horiz-adv-x="1089" d="M76 352q0 84 20.5 174t66 181.5t110.5 163.5t162 117.5t212 45.5q168 0 267.5 -95t99.5 -277q0 -88 -23 -181t-71.5 -183t-115 -160.5t-162.5 -114t-206 -43.5q-164 0 -262 95t-98 277zM236 356q0 -128 59 -189t156 -61q75 0 141.5 35.5t113.5 92.5t81.5 129t51.5 145.5 t17 140.5q0 130 -61 192t-158 62q-93 0 -171.5 -54t-127 -137t-75.5 -176.5t-27 -179.5zM346 1214l381 336h107l200 -362l-114 -51l-162 256l-322 -260z" />
<glyph unicode="&#xf5;" horiz-adv-x="1089" d="M76 352q0 84 20.5 174t66 181.5t110.5 163.5t162 117.5t212 45.5q168 0 267.5 -95t99.5 -277q0 -88 -23 -181t-71.5 -183t-115 -160.5t-162.5 -114t-206 -43.5q-164 0 -262 95t-98 277zM236 356q0 -128 59 -189t156 -61q75 0 141.5 35.5t113.5 92.5t81.5 129t51.5 145.5 t17 140.5q0 130 -61 192t-158 62q-93 0 -171.5 -54t-127 -137t-75.5 -176.5t-27 -179.5zM332 1202q28 119 85 166t124 47q42 0 83.5 -17t69 -38t64 -38t69.5 -17t55.5 25.5t41.5 99.5l112 -37q-37 -226 -207 -226q-46 0 -90.5 16.5t-74 37t-63 37t-58.5 16.5q-69 0 -99 -117 z" />
<glyph unicode="&#xf6;" horiz-adv-x="1089" d="M76 352q0 84 20.5 174t66 181.5t110.5 163.5t162 117.5t212 45.5q168 0 267.5 -95t99.5 -277q0 -88 -23 -181t-71.5 -183t-115 -160.5t-162.5 -114t-206 -43.5q-164 0 -262 95t-98 277zM236 356q0 -128 59 -189t156 -61q75 0 141.5 35.5t113.5 92.5t81.5 129t51.5 145.5 t17 140.5q0 130 -61 192t-158 62q-93 0 -171.5 -54t-127 -137t-75.5 -176.5t-27 -179.5zM379 1178l63 237h201l-61 -237h-203zM770 1178l61 237h203l-61 -237h-203z" />
<glyph unicode="&#xf7;" horiz-adv-x="1114" d="M106 545l37 139h922l-37 -139h-922zM338 139l68 252h239l-67 -252h-240zM524 838l68 252h237l-65 -252h-240z" />
<glyph unicode="&#xf8;" horiz-adv-x="1089" d="M-43 -131l195 233q-76 94 -76 244q0 70 15 145.5t44 153.5t77 147.5t108.5 123.5t144 86t178.5 32q133 0 225 -61l191 229l82 -57l-199 -238q72 -90 72 -239q0 -91 -23 -185.5t-71.5 -185t-115 -161t-162.5 -113.5t-206 -43q-126 0 -211 57l-188 -227zM236 365 q0 -72 20 -134l518 625q-56 47 -141 47q-88 0 -164.5 -50.5t-126 -130t-78 -173.5t-28.5 -184zM317 150q53 -44 136 -44q75 0 141 35t113 92.5t81 130t51 149.5t17 149q0 66 -22 112z" />
<glyph unicode="&#xf9;" horiz-adv-x="1220" d="M117 895l30 119h361q-25 -79 -61 -198.5t-97 -345.5t-61 -282q0 -29 16 -46t47 -17q50 0 124.5 49.5t144.5 121t125.5 136t84.5 107.5q6 16 23 78t40.5 149.5t33.5 122.5l-228 -8l33 120l391 17q-44 -142 -102.5 -362t-94.5 -370l-36 -149q46 22 138 65.5t138 65.5 l-32 -137q-25 -17 -64.5 -42t-127.5 -67t-134 -42q-36 0 -55 22t-19 55q0 65 68 295q-47 -66 -99 -124.5t-117.5 -118t-138 -94.5t-139.5 -35q-87 0 -132.5 54t-45.5 122q0 48 28 171.5t60 239t92 328.5h-194zM358 1477l150 90l436 -355l-100 -69z" />
<glyph unicode="&#xfa;" horiz-adv-x="1220" d="M117 895l30 119h361q-25 -79 -61 -198.5t-97 -345.5t-61 -282q0 -29 16 -46t47 -17q50 0 124.5 49.5t144.5 121t125.5 136t84.5 107.5q6 16 23 78t40.5 149.5t33.5 122.5l-228 -8l33 120l391 17q-44 -142 -102.5 -362t-94.5 -370l-36 -149q46 22 138 65.5t138 65.5 l-32 -137q-25 -17 -64.5 -42t-127.5 -67t-134 -42q-36 0 -55 22t-19 55q0 65 68 295q-47 -66 -99 -124.5t-117.5 -118t-138 -94.5t-139.5 -35q-87 0 -132.5 54t-45.5 122q0 48 28 171.5t60 239t92 328.5h-194zM518 1212l436 355l150 -90l-486 -334z" />
<glyph unicode="&#xfb;" horiz-adv-x="1220" d="M117 895l30 119h361q-25 -79 -61 -198.5t-97 -345.5t-61 -282q0 -29 16 -46t47 -17q50 0 124.5 49.5t144.5 121t125.5 136t84.5 107.5q6 16 23 78t40.5 149.5t33.5 122.5l-228 -8l33 120l391 17q-44 -142 -102.5 -362t-94.5 -370l-36 -149q46 22 138 65.5t138 65.5 l-32 -137q-25 -17 -64.5 -42t-127.5 -67t-134 -42q-36 0 -55 22t-19 55q0 65 68 295q-47 -66 -99 -124.5t-117.5 -118t-138 -94.5t-139.5 -35q-87 0 -132.5 54t-45.5 122q0 48 28 171.5t60 239t92 328.5h-194zM381 1214l381 336h106l201 -362l-115 -51l-161 256l-322 -260z " />
<glyph unicode="&#xfc;" horiz-adv-x="1220" d="M117 895l30 119h361q-25 -79 -61 -198.5t-97 -345.5t-61 -282q0 -29 16 -46t47 -17q50 0 124.5 49.5t144.5 121t125.5 136t84.5 107.5q6 16 23 78t40.5 149.5t33.5 122.5l-228 -8l33 120l391 17q-44 -142 -102.5 -362t-94.5 -370l-36 -149q46 22 138 65.5t138 65.5 l-32 -137q-25 -17 -64.5 -42t-127.5 -67t-134 -42q-36 0 -55 22t-19 55q0 65 68 295q-47 -66 -99 -124.5t-117.5 -118t-138 -94.5t-139.5 -35q-87 0 -132.5 54t-45.5 122q0 48 28 171.5t60 239t92 328.5h-194zM393 1178l64 237h200l-61 -237h-203zM784 1178l62 237h203 l-62 -237h-203z" />
<glyph unicode="&#xfd;" horiz-adv-x="1091" d="M-203 -410l29 154q11 -6 32 -14.5t82 -22.5t119 -14q140 0 247 77t175 199l-215 926h-223l31 119h338l192 -897q59 113 152.5 374t142.5 513l186 32q-236 -928 -567 -1272q-107 -114 -219 -164.5t-242 -50.5q-68 0 -133 10.5t-96 20.5zM449 1212l436 355l149 -90 l-485 -334z" />
<glyph unicode="&#xfe;" horiz-adv-x="1130" d="M-256 -451l33 129h172l438 1657h-174l31 119h340q-105 -404 -219 -790q111 159 245.5 264.5t259.5 105.5q104 0 156.5 -74.5t52.5 -199.5q0 -121 -47.5 -257.5t-126.5 -253t-194 -193t-238 -76.5q-60 0 -106 17.5t-72 46t-40 57.5t-17 59l-125 -482h233l-33 -129h-569z M305 322q0 -56 13.5 -103.5t52 -84t98.5 -36.5q83 0 166.5 68t143 168.5t97 217t37.5 212.5q0 139 -84 139q-107 0 -292 -188q-75 -75 -141.5 -160.5t-82.5 -122.5q0 -2 -2 -19.5t-4 -43t-2 -47.5z" />
<glyph unicode="&#xff;" horiz-adv-x="1091" d="M-203 -410l29 154q11 -6 32 -14.5t82 -22.5t119 -14q140 0 247 77t175 199l-215 926h-223l31 119h338l192 -897q59 113 152.5 374t142.5 513l186 32q-236 -928 -567 -1272q-107 -114 -219 -164.5t-242 -50.5q-68 0 -133 10.5t-96 20.5zM322 1178l63 237h201l-62 -237 h-202zM713 1178l61 237h203l-62 -237h-202z" />
<glyph unicode="&#x152;" horiz-adv-x="2138" d="M154 532q0 145 38 280t112 247.5t176 196.5t238 131t290 47h1142l-84 -355h-127l29 219h-584l-137 -510h314l55 207h143l-141 -536h-143l53 198h-314l-137 -524h719l105 225h127l-115 -358h-1274q-108 0 -194.5 29.5t-153 91.5t-102 166t-35.5 245zM319 524 q0 -211 91 -301t286 -90h211l310 1165h-213q-130 0 -242 -42t-192.5 -115.5t-137.5 -171.5t-85 -211t-28 -234z" />
<glyph unicode="&#x153;" horiz-adv-x="1720" d="M76 350q0 92 23.5 187t71 184t113.5 159t158 112t197 42q125 0 212.5 -59.5t119.5 -167.5q76 112 184.5 169.5t228.5 57.5q129 0 205 -62.5t76 -164.5q0 -198 -295 -277q-152 -41 -391 -41q-16 -72 -16 -124q0 -125 60 -187.5t175 -62.5q55 0 116 14t108 33.5t86.5 39.5 t61.5 34l21 14l-43 -164q-7 -4 -19 -11.5t-51 -25.5t-80.5 -32t-103.5 -25.5t-123 -11.5q-142 0 -221 56.5t-116 160.5q-65 -99 -172.5 -158t-237.5 -59q-161 0 -254.5 93.5t-93.5 276.5zM238 356q0 -128 59 -189t156 -61q75 0 141.5 35.5t113.5 92.5t81.5 129t51.5 145.5 t17 140.5q0 130 -61 192t-158 62q-93 0 -171.5 -54t-127 -137t-75.5 -176.5t-27 -179.5zM1024 614q214 0 350.5 53.5t136.5 141.5q0 48 -40 74t-101 26q-109 0 -203 -83t-143 -212z" />
<glyph unicode="&#x178;" horiz-adv-x="1398" d="M209 1309l33 125h569l-33 -125h-211l183 -643l510 643h-230l33 125h592l-33 -125h-190l-633 -774l-107 -408h219l-32 -127h-607l33 127h219l107 414l-228 768h-194zM645 1587l64 238h200l-61 -238h-203zM1036 1587l62 238h202l-61 -238h-203z" />
<glyph unicode="&#x2c6;" horiz-adv-x="894" d="M375 1214l381 336h106l201 -362l-115 -51l-162 256l-321 -260z" />
<glyph unicode="&#x2dc;" horiz-adv-x="845" d="M299 1202q28 119 85 166t124 47q53 0 103.5 -27.5t96.5 -55t87 -27.5q33 0 55 25.5t41 99.5l113 -37q-37 -226 -207 -226q-46 0 -91 16.5t-74 37t-63 37t-59 16.5q-68 0 -98 -117z" />
<glyph unicode="&#x2000;" horiz-adv-x="994" />
<glyph unicode="&#x2001;" horiz-adv-x="1989" />
<glyph unicode="&#x2002;" horiz-adv-x="994" />
<glyph unicode="&#x2003;" horiz-adv-x="1989" />
<glyph unicode="&#x2004;" horiz-adv-x="663" />
<glyph unicode="&#x2005;" horiz-adv-x="497" />
<glyph unicode="&#x2006;" horiz-adv-x="331" />
<glyph unicode="&#x2007;" horiz-adv-x="331" />
<glyph unicode="&#x2008;" horiz-adv-x="248" />
<glyph unicode="&#x2009;" horiz-adv-x="397" />
<glyph unicode="&#x200a;" horiz-adv-x="110" />
<glyph unicode="&#x2010;" horiz-adv-x="886" d="M135 578l35 137h651l-35 -137h-651z" />
<glyph unicode="&#x2011;" horiz-adv-x="886" d="M135 578l35 137h651l-35 -137h-651z" />
<glyph unicode="&#x2012;" horiz-adv-x="886" d="M135 578l35 137h651l-35 -137h-651z" />
<glyph unicode="&#x2013;" horiz-adv-x="1366" d="M133 578l37 137h1133l-37 -137h-1133z" />
<glyph unicode="&#x2014;" horiz-adv-x="2027" d="M133 578l37 137h1792l-37 -137h-1792z" />
<glyph unicode="&#x2018;" horiz-adv-x="520" d="M188 809l72 278l281 347h131l-209 -326h84l-80 -299h-279z" />
<glyph unicode="&#x2019;" horiz-adv-x="503" d="M176 809l211 324h-84l78 301h281l-74 -279l-281 -346h-131z" />
<glyph unicode="&#x201a;" horiz-adv-x="548" d="M-121 -326l209 326h-84l80 299h278l-71 -279l-281 -346h-131z" />
<glyph unicode="&#x201c;" horiz-adv-x="923" d="M188 809l72 278l281 347h131l-209 -326h82l-78 -299h-279zM592 809l72 278l282 347h129l-209 -326h84l-78 -299h-280z" />
<glyph unicode="&#x201d;" horiz-adv-x="909" d="M176 809l211 324h-84l78 301h281l-74 -279l-281 -346h-131zM582 809l209 324h-84l79 301h279l-72 -279l-280 -346h-131z" />
<glyph unicode="&#x201e;" horiz-adv-x="952" d="M-121 -326l209 326h-84l80 299h278l-71 -279l-283 -346h-129zM283 -326l211 326h-84l77 299h279l-72 -279l-280 -346h-131z" />
<glyph unicode="&#x2022;" horiz-adv-x="831" d="M152 719q0 131 92 223t223 92t223 -92t92 -223t-92.5 -223.5t-222.5 -92.5t-222.5 92.5t-92.5 223.5z" />
<glyph unicode="&#x2026;" horiz-adv-x="1824" d="M4 0l80 299h278l-79 -299h-279zM643 0l78 299h280l-77 -299h-281zM1282 0l78 299h278l-77 -299h-279z" />
<glyph unicode="&#x202f;" horiz-adv-x="397" />
<glyph unicode="&#x2039;" horiz-adv-x="675" d="M37 524l10 33l504 457h201l-531 -496l256 -518h-164z" />
<glyph unicode="&#x203a;" horiz-adv-x="688" d="M-57 0l522 502q-49 97 -116.5 225t-110.5 207l-43 80h165l297 -508l-10 -33l-512 -473h-192z" />
<glyph unicode="&#x205f;" horiz-adv-x="497" />
<glyph unicode="&#x20ac;" horiz-adv-x="1398" d="M82 479l29 117h184q7 52 41 192h-174l31 117h180q61 158 147 275t203.5 187.5t251.5 70.5q108 0 179.5 -43t102.5 -117l54 149h125l-111 -452l-135 -4q0 3 1 30t1 43q0 37 -4.5 70.5t-19 70.5t-37 63t-62.5 43.5t-92 17.5q-135 0 -245 -108t-189 -296h473l-31 -117h-481 q-33 -115 -41 -192h471l-31 -117h-444q0 -171 66.5 -262.5t228.5 -91.5q89 0 172.5 20t139.5 48.5t99.5 57t63.5 48.5l20 20l-35 -174q-8 -7 -22 -18t-61.5 -39.5t-99 -50t-132 -39.5t-162.5 -18q-224 0 -338 121.5t-114 330.5q0 31 2 47h-205z" />
<glyph unicode="&#x2122;" horiz-adv-x="2424" d="M240 510l30 113h203l184 696h-215l-86 -215h-112l98 330h836l-76 -330h-115l29 215h-217l-183 -696h203l-31 -113h-548zM1087 510l31 113h185l182 696h-185l31 115h369l121 -445l362 445h369l-31 -115h-184l-183 -696h185l-31 -113h-514l31 113h188l174 645l-340 -420 h-121l-120 416l-162 -641h186l-28 -113h-515z" />
<glyph unicode="&#xe000;" horiz-adv-x="1024" d="M0 0v1024h1024v-1024h-1024z" />
</font>
</defs>
</svg>
